<?xml version="1.0" standalone="no"?>
<!DOCTYPE svg PUBLIC "-//W3C//DTD SVG 1.1//EN" "http://www.w3.org/Graphics/SVG/1.1/DTD/svg11.dtd" >
<svg xmlns="http://www.w3.org/2000/svg" xmlns:xlink="http://www.w3.org/1999/xlink" version="1.1">
<metadata>
Created by FontForge 20170731 at Sat Oct 31 16:09:49 2020
 By Aleksey,,,
Copyright 2011 The Comfortaa Project Authors (https://github.com/alexeiva/comfortaa), with Reserved Font Name "Comfortaa".
</metadata>
<defs>
<font id="Comfortaa-Regular" horiz-adv-x="677" >
  <font-face 
    font-family="Comfortaa"
    font-weight="400"
    font-stretch="normal"
    units-per-em="1000"
    panose-1="0 0 0 0 0 0 0 0 0 0"
    ascent="800"
    descent="-200"
    x-height="545.5"
    cap-height="781"
    bbox="-110.368 -238 1272 1060"
    underline-thickness="50"
    underline-position="-175"
    unicode-range="U+000D-2215"
  />
<missing-glyph horiz-adv-x="625" 
d="M68 0q-12 0 -20.5 8.5t-8.5 20.5v723q0 12 8.5 20.5t20.5 8.5h489q12 0 20.5 -8.5t8.5 -20.5v-723q0 -12 -8.5 -20.5t-20.5 -8.5h-489zM312 130q-18 0 -30.5 12.5t-12.5 30.5t12.5 30.5t30.5 12.5t30.5 -12.5t12.5 -30.5t-12.5 -30.5t-30.5 -12.5zM93 54h439v673h-439
v-673zM312 252q-14 0 -22.5 9t-8.5 22q0 29 13.5 59t35.5 51q20 18 37 34.5t28 36.5t11 50q0 37 -26 61t-66 24q-43 0 -69 -26t-26 -70q0 -13 -9 -21.5t-22 -8.5t-22 8.5t-9 21.5q0 45 20 80t55.5 54.5t81.5 19.5q44 0 78.5 -18.5t54 -51.5t19.5 -75q0 -37 -13 -63t-34 -47
t-46 -44q-15 -13 -22.5 -33t-7.5 -42q0 -13 -9 -22t-22 -9z" />
    <glyph glyph-name="fi" unicode="fi" horiz-adv-x="606" 
d="M159 0q-16 0 -27 11t-11 28v513q0 67 23.5 119t75.5 82.5t139 30.5q40 0 76 -9t58.5 -25.5t22.5 -40.5q0 -43 -49 -43q-17 0 -31 8.5t-28.5 20t-31.5 20t-41 8.5q-40 0 -71 -16t-48.5 -53.5t-17.5 -101.5v-513q0 -17 -11 -28t-28 -11zM57 460q-16 0 -25.5 9.5t-9.5 23.5
q0 15 9.5 24.5t25.5 9.5h262q15 0 25 -9.5t10 -24.5q0 -14 -10 -23.5t-25 -9.5h-262zM469 0q-18 0 -28.5 10.5t-10.5 28.5v469q0 18 10.5 28.5t28.5 10.5q17 0 27.5 -10.5t10.5 -28.5v-469q0 -18 -10.5 -28.5t-27.5 -10.5z" />
    <glyph glyph-name="fl" unicode="fl" horiz-adv-x="642" 
d="M159 0q-16 0 -27 11t-11 28v525q0 61 24 110.5t73 78.5t122 28q21 0 45.5 -3.5t50.5 -11.5q23 -6 35 -16.5t12 -27.5q0 -20 -13.5 -27t-33.5 -1q-27 8 -51 12t-45 4q-68 0 -105 -36t-37 -112v-523q0 -17 -11 -28t-28 -11zM57 460q-16 0 -25.5 9.5t-9.5 23.5
q0 15 9.5 24.5t25.5 9.5h253q16 0 25.5 -9.5t9.5 -24.5q0 -14 -9.5 -23.5t-25.5 -9.5h-253zM568 0q-41 0 -72 22t-49 61t-18 90v570q0 17 11 27.5t28 10.5q16 0 27 -10.5t11 -27.5v-570q0 -43 17.5 -70t44.5 -27h25q14 0 23.5 -10.5t9.5 -27.5t-13 -27.5t-33 -10.5h-12z" />
    <glyph glyph-name="f_f" unicode="ff" horiz-adv-x="732" 
d="M158 0q-15 0 -26 10.5t-11 28.5v507q0 70 24 123t71 82.5t115 29.5q17 0 28 -10t11 -25t-11 -25t-28 -10q-45 0 -74.5 -20.5t-44 -57t-14.5 -83.5v-511q0 -18 -10.5 -28.5t-29.5 -10.5zM57 460q-16 0 -25.5 9.5t-9.5 23.5q0 15 9.5 24.5t25.5 9.5h261q16 0 25.5 -9.5
t9.5 -24.5q0 -14 -9.5 -23.5t-25.5 -9.5h-261zM524 0q-15 0 -26 10.5t-11 28.5v507q0 70 24 123t71 82.5t115 29.5q17 0 28 -10t11 -25t-11 -25t-28 -10q-45 0 -74.5 -20.5t-44 -57t-14.5 -83.5v-511q0 -18 -10.5 -28.5t-29.5 -10.5zM423 460q-16 0 -25.5 9.5t-9.5 23.5
q0 15 9.5 24.5t25.5 9.5h261q16 0 25.5 -9.5t9.5 -24.5q0 -14 -9.5 -23.5t-25.5 -9.5h-261z" />
    <glyph glyph-name="f_f_i" unicode="ffi" horiz-adv-x="1021" 
d="M158 0q-15 0 -26 10.5t-11 28.5v507q0 70 24 123t71 82.5t115 29.5q17 0 28 -10t11 -25t-11 -25t-28 -10q-45 0 -74.5 -20.5t-44 -57t-14.5 -83.5v-511q0 -18 -10.5 -28.5t-29.5 -10.5zM57 460q-16 0 -25.5 9.5t-9.5 23.5q0 15 9.5 24.5t25.5 9.5h261q16 0 25.5 -9.5
t9.5 -24.5q0 -14 -9.5 -23.5t-25.5 -9.5h-261zM524 0q-15 0 -26 10.5t-11 28.5v507q0 70 24 123t71 82.5t115 29.5q17 0 28 -10t11 -25t-11 -25t-28 -10q-45 0 -74.5 -20.5t-44 -57t-14.5 -83.5v-511q0 -18 -10.5 -28.5t-29.5 -10.5zM423 460q-16 0 -25.5 9.5t-9.5 23.5
q0 15 9.5 24.5t25.5 9.5h261q16 0 25.5 -9.5t9.5 -24.5q0 -14 -9.5 -23.5t-25.5 -9.5h-261zM877 0q-18 0 -28.5 10.5t-10.5 28.5v469q0 18 10.5 28.5t28.5 10.5q17 0 27.5 -10.5t10.5 -28.5v-469q0 -18 -10.5 -28.5t-27.5 -10.5zM876 651q-22 0 -38 16t-16 39
q0 25 16.5 39.5t38.5 14.5q21 0 37.5 -14.5t16.5 -39.5q0 -23 -16 -39t-39 -16z" />
    <glyph glyph-name="f_f_l" unicode="ffl" horiz-adv-x="1014" 
d="M158 0q-15 0 -26 10.5t-11 28.5v507q0 70 24 123t71 82.5t115 29.5q17 0 28 -10t11 -25t-11 -25t-28 -10q-45 0 -74.5 -20.5t-44 -57t-14.5 -83.5v-511q0 -18 -10.5 -28.5t-29.5 -10.5zM57 460q-16 0 -25.5 9.5t-9.5 23.5q0 15 9.5 24.5t25.5 9.5h261q16 0 25.5 -9.5
t9.5 -24.5q0 -14 -9.5 -23.5t-25.5 -9.5h-261zM524 0q-15 0 -26 10.5t-11 28.5v507q0 70 24 123t71 82.5t115 29.5q17 0 28 -10t11 -25t-11 -25t-28 -10q-45 0 -74.5 -20.5t-44 -57t-14.5 -83.5v-511q0 -18 -10.5 -28.5t-29.5 -10.5zM423 460q-16 0 -25.5 9.5t-9.5 23.5
q0 15 9.5 24.5t25.5 9.5h261q16 0 25.5 -9.5t9.5 -24.5q0 -14 -9.5 -23.5t-25.5 -9.5h-261zM940 0q-40 0 -71.5 22t-49 61t-17.5 90v570q0 17 10.5 27.5t27.5 10.5t27.5 -10.5t10.5 -27.5v-570q0 -43 17.5 -70t44.5 -27h25q15 0 24 -10.5t9 -27.5t-12.5 -27.5t-32.5 -10.5
h-13z" />
    <glyph glyph-name=".notdef" horiz-adv-x="625" 
d="M68 0q-12 0 -20.5 8.5t-8.5 20.5v723q0 12 8.5 20.5t20.5 8.5h489q12 0 20.5 -8.5t8.5 -20.5v-723q0 -12 -8.5 -20.5t-20.5 -8.5h-489zM312 130q-18 0 -30.5 12.5t-12.5 30.5t12.5 30.5t30.5 12.5t30.5 -12.5t12.5 -30.5t-12.5 -30.5t-30.5 -12.5zM93 54h439v673h-439
v-673zM312 252q-14 0 -22.5 9t-8.5 22q0 29 13.5 59t35.5 51q20 18 37 34.5t28 36.5t11 50q0 37 -26 61t-66 24q-43 0 -69 -26t-26 -70q0 -13 -9 -21.5t-22 -8.5t-22 8.5t-9 21.5q0 45 20 80t55.5 54.5t81.5 19.5q44 0 78.5 -18.5t54 -51.5t19.5 -75q0 -37 -13 -63t-34 -47
t-46 -44q-15 -13 -22.5 -33t-7.5 -42q0 -13 -9 -22t-22 -9z" />
    <glyph glyph-name=".null" horiz-adv-x="0" 
 />
    <glyph glyph-name="nonmarkingreturn" horiz-adv-x="333" 
 />
    <glyph glyph-name="NULL" horiz-adv-x="0" 
 />
    <glyph glyph-name="NULL" horiz-adv-x="0" 
 />
    <glyph glyph-name="CR" unicode="&#xd;" horiz-adv-x="293" 
 />
    <glyph glyph-name="space" unicode=" " horiz-adv-x="293" 
 />
    <glyph glyph-name="exclam" unicode="!" horiz-adv-x="266" 
d="M108 177q-16 0 -27.5 11.5t-11.5 27.5v526q0 17 11.5 28.5t27.5 11.5q17 0 28 -11.5t11 -28.5v-526q0 -16 -12 -27.5t-27 -11.5zM108 0q-24 0 -41 17t-17 41q0 25 17 42t41 17t41 -17.5t17 -41.5t-17 -41t-41 -17z" />
    <glyph glyph-name="quotedbl" unicode="&#x22;" horiz-adv-x="273" 
d="M200 567q-12 0 -20 8t-8 20l-11 147q0 17 11.5 28.5t27.5 11.5q17 0 28 -11.5t11 -28.5l-10 -147q0 -12 -8.5 -20t-20.5 -8zM80 567q-13 0 -21 8t-9 20l-9 147q0 17 11.5 28t27.5 11t27 -11t11 -28l-10 -147q0 -12 -8 -20t-20 -8z" />
    <glyph glyph-name="numbersign" unicode="#" horiz-adv-x="724" 
d="M645 546q17 0 26 -8.5t8 -22.5q-1 -16 -13 -24.5t-33 -8.5h-79l-30 -172h81q17 0 25 -8.5t8 -21.5t-11.5 -23.5t-34.5 -10.5h-82l-36 -207q-4 -18 -15.5 -28.5t-29.5 -10.5q-16 0 -24.5 10.5t-4.5 28.5l35 207h-194l-36 -207q-3 -16 -15 -27.5t-29 -11.5q-16 0 -24.5 10
t-5.5 29l36 207h-84q-16 0 -24.5 8t-7.5 21q1 17 13 26t30 9h87l29 172h-83q-18 0 -27 8t-9 22q0 16 12 25t33 9h88l36 201q3 17 15 28.5t29 11.5q16 0 24.5 -11t5.5 -28l-36 -202h195l36 201q2 17 14.5 28.5t29.5 11.5q19 0 25.5 -11.5t3.5 -27.5l-35 -202h78zM449 310
l30 172h-195l-29 -172h194z" />
    <glyph glyph-name="dollar" unicode="$" horiz-adv-x="598" 
d="M303 -10q-59 0 -110 17t-88 49.5t-56 76.5q-7 16 -0.5 29.5t23.5 17.5q13 4 25.5 -2.5t18.5 -20.5q20 -43 70 -69t117 -26q51 0 90 16.5t61.5 48t22.5 77.5q1 62 -41.5 106.5t-132.5 56.5q-70 9 -122 38t-80 74t-28 103q0 61 31.5 104t86 66t122.5 23q54 0 96.5 -16.5
t73.5 -44.5t50 -62q9 -16 6.5 -30.5t-16.5 -21.5q-12 -8 -26.5 -3t-22.5 18q-20 35 -58 62t-103 27q-75 1 -120 -30t-45 -94q0 -33 14.5 -63t51.5 -53t104 -33q115 -17 175.5 -74.5t60.5 -150.5q0 -52 -19.5 -92t-53.5 -68t-80 -42t-98 -14zM310 -99q-11 0 -18.5 7.5
t-7.5 20.5v893q0 14 7.5 21t18.5 7q10 0 17.5 -7t7.5 -21v-893q0 -13 -7.5 -20.5t-17.5 -7.5z" />
    <glyph glyph-name="percent" unicode="%" horiz-adv-x="859" 
d="M159 0q-16 0 -27 11t-11 28q0 15 9 26l549 701q7 7 14.5 11.5t16.5 4.5q17 0 28 -11.5t11 -28.5q0 -13 -7 -23l-553 -706q-13 -13 -30 -13zM232 391q-54 0 -98.5 26.5t-71 71t-26.5 97.5t26.5 97.5t71 71.5t98.5 27q53 0 97.5 -27t71 -71.5t26.5 -97.5t-26.5 -97.5
t-71 -71t-97.5 -26.5zM232 467q32 0 59 16.5t43.5 43.5t16.5 59q0 33 -16.5 60t-44 43.5t-58.5 16.5q-32 0 -59.5 -16.5t-44 -43.5t-16.5 -60q0 -32 16.5 -59t43.5 -43.5t60 -16.5zM637 0q-53 0 -97.5 26.5t-71 70.5t-26.5 98q0 53 26.5 97.5t70.5 71t98 26.5t98.5 -26
t71 -70.5t26.5 -98.5t-26.5 -98t-71 -70.5t-98.5 -26.5zM637 76q33 0 60 16.5t43.5 43.5t16.5 59t-16.5 59t-44 43.5t-59.5 16.5t-59.5 -16t-43.5 -43.5t-16 -59.5q0 -33 16 -60t43.5 -43t59.5 -16z" />
    <glyph glyph-name="ampersand" unicode="&#x26;" horiz-adv-x="720" 
d="M256 -7q-65 0 -112 23.5t-73 65.5t-26 97q0 64 40 118.5t121 117.5l84 66q43 34 64.5 69.5t21.5 73.5q0 41 -28 71.5t-79 30.5q-45 0 -74.5 -28.5t-29.5 -66.5q0 -31 12.5 -57.5t38.5 -52.5l449 -448q12 -13 14 -24t-10 -24q-26 -26 -51 0l-454 454q-32 32 -50.5 70.5
t-18.5 80.5q0 46 23 82t62 57t89 21q51 0 91 -22t63 -59.5t23 -85.5q-1 -38 -15.5 -70.5t-41.5 -62t-65 -59.5l-83 -64q-43 -34 -70 -65.5t-39.5 -61.5t-12.5 -61q0 -54 36 -86.5t103 -32.5q51 0 93.5 26t87.5 74l152 161q12 12 23 14.5t24 -9.5q12 -11 13 -24t-12 -26
l-152 -161q-52 -57 -107.5 -89.5t-123.5 -32.5z" />
    <glyph glyph-name="quotesingle" unicode="'" horiz-adv-x="156" 
d="M80 567q-12 0 -20.5 8.5t-8.5 20.5l-10 147q0 16 11.5 27t27.5 11t27.5 -11t11.5 -27l-10 -147q0 -12 -8.5 -20.5t-20.5 -8.5z" />
    <glyph glyph-name="parenleft" unicode="(" horiz-adv-x="256" 
d="M207 -234q-12 0 -21 6t-16 20q-59 121 -88 241.5t-29 241.5t29 241t88 240q12 26 37 26q16 0 27 -11t11 -27q0 -12 -6 -22q-110 -223 -110 -448q0 -112 28 -225t83 -224q6 -12 6 -21q0 -16 -11 -27t-28 -11z" />
    <glyph glyph-name="parenright" unicode=")" horiz-adv-x="256" 
d="M49 -234q-16 0 -27 11t-11 27q0 9 5 21q55 111 83.5 224t28.5 225q0 225 -111 448q-5 10 -6 22q0 16 11.5 27t26.5 11q26 0 38 -26q59 -120 88 -240t29 -241t-29.5 -241.5t-87.5 -241.5q-8 -14 -16.5 -20t-21.5 -6z" />
    <glyph glyph-name="asterisk" unicode="*" horiz-adv-x="381" 
d="M121 494q-17 0 -27.5 12t-10.5 27q0 8 3 15.5t11 12.5l68 57l-81 7q-18 2 -28.5 13t-10.5 26q1 18 12.5 28.5t26.5 10.5q6 0 12.5 -2.5t12.5 -6.5l66 -41l-17 77l-2 6t-1 7q0 16 11.5 27.5t27.5 11.5t27.5 -11.5t11.5 -27.5q0 -4 -0.5 -7t-1.5 -6l-18 -78l73 45q9 6 19 6
q14 0 26.5 -11t12.5 -28t-11 -27.5t-27 -11.5l-81 -7l63 -52q18 -14 18 -33q0 -16 -11.5 -27.5t-31.5 -11.5q-12 1 -20 8t-13 18l-35 78l-36 -77q-5 -14 -14.5 -20.5t-23.5 -6.5z" />
    <glyph glyph-name="plus" unicode="+" horiz-adv-x="547" 
d="M272 156q-16 0 -27 11t-11 28v157h-157q-16 0 -27 11t-11 28q0 16 11 27.5t27 11.5h157v157q0 16 11 27t27 11q17 0 28 -11t11 -27v-157h157q16 0 27.5 -11.5t11.5 -27.5q0 -17 -11.5 -28t-27.5 -11h-157v-157q0 -17 -11 -28t-28 -11z" />
    <glyph glyph-name="comma" unicode="," horiz-adv-x="226" 
d="M81 -162q-10 0 -15.5 5.5t-5.5 14.5q0 15 9 27.5t18.5 26.5t9.5 34q0 18 -7 30t-16.5 21.5t-16.5 21t-7 28.5q0 25 16.5 40t41.5 15q30 0 49 -23.5t19 -65.5q0 -28 -8 -59t-22 -57.5t-31 -42.5t-34 -16z" />
    <glyph glyph-name="hyphen" unicode="-" horiz-adv-x="391" 
d="M76 235q-16 0 -27 11t-11 27q0 17 11 28t27 11h235q17 0 28 -11t11 -28q0 -16 -11 -27t-28 -11h-235z" />
    <glyph glyph-name="period" unicode="." horiz-adv-x="216" 
d="M108 -16q-24 0 -41 17t-17 41q0 25 17.5 42t40.5 17q24 0 41 -17.5t17 -41.5q0 -23 -16.5 -40.5t-41.5 -17.5z" />
    <glyph glyph-name="slash" unicode="/" horiz-adv-x="469" 
d="M77 -78q-21 0 -32.5 16.5t-2.5 38.5l314 783q4 11 14 17t22 6q22 0 32 -17.5t3 -37.5l-314 -784q-5 -12 -15 -17t-21 -5z" />
    <glyph glyph-name="zero" unicode="0" horiz-adv-x="571" 
d="M285 0q-74 0 -127 47t-80.5 134.5t-27.5 210.5q0 121 27.5 209t80.5 135t127 47q76 0 128.5 -47.5t80 -135.5t27.5 -208q0 -122 -27.5 -209.5t-80 -135t-128.5 -47.5zM285 78q54 0 89 40.5t52 111.5t17 162q0 90 -17.5 160.5t-52.5 111.5t-88 41t-87.5 -40.5t-52 -111.5
t-17.5 -161q0 -92 17.5 -162.5t52 -111t87.5 -40.5z" />
    <glyph glyph-name="one" unicode="1" horiz-adv-x="378" 
d="M239 0q-16 0 -27.5 11t-11.5 28v650l-100 -35q-11 -5 -20 -5q-17 0 -28 11t-11 27q0 12 5.5 22t19.5 15l154 53q5 2 10.5 3.5t9.5 1.5q17 0 27.5 -11.5t10.5 -27.5v-704q0 -17 -11 -28t-28 -11z" />
    <glyph glyph-name="two" unicode="2" horiz-adv-x="581" 
d="M110 0q-16 0 -27.5 11t-11.5 28q0 15 11 27l303 358q25 27 40 60.5t15 62.5q0 47 -18.5 83t-52 56.5t-76.5 20.5q-42 0 -76.5 -21.5t-54 -57.5t-19.5 -81q0 -16 -11 -27t-28 -11q-16 0 -27.5 11t-11.5 27q0 67 30 120t81.5 84t116.5 31t115.5 -30t79 -83t28.5 -122
q0 -33 -10.5 -63t-28.5 -57.5t-39 -51.5l-256 -297h313q16 0 27.5 -12t11.5 -27q0 -17 -11.5 -28t-27.5 -11h-385z" />
    <glyph glyph-name="three" unicode="3" horiz-adv-x="585" 
d="M300 -5q-70 0 -125.5 30.5t-87.5 83.5t-32 120q0 17 10 29t27 12t27 -12t10 -29q0 -46 22 -82.5t60.5 -58t85.5 -21.5q78 0 122 43.5t44 112.5q0 49 -21 85.5t-57 57t-81 20.5q-16 0 -27 11t-11 28q0 16 11 27t27 11q35 0 64.5 17.5t47.5 46.5t18 64q0 53 -36 88.5
t-96 35.5q-42 0 -75 -16.5t-51.5 -44t-18.5 -62.5q0 -17 -10.5 -28.5t-26.5 -11.5q-17 0 -27 11.5t-10 27.5q0 55 28.5 99.5t77.5 70t113 25.5q58 0 104.5 -25.5t74 -70t27.5 -99.5q0 -34 -16.5 -66t-43.5 -57.5t-59 -39.5q51 -15 85 -46t50 -72.5t16 -86.5
q0 -66 -31.5 -117.5t-86.5 -81t-122 -29.5z" />
    <glyph glyph-name="four" unicode="4" horiz-adv-x="647" 
d="M448 0q-15 0 -26 11t-11 28v148h-358q-16 0 -26.5 10.5t-12 24.5t7.5 26l396 518q5 7 12.5 11.5t19.5 4.5q16 0 26.5 -11.5t10.5 -28.5v-485h79q16 0 27 -8t11 -28q0 -13 -11 -23.5t-27 -10.5h-79v-148q0 -17 -11 -28t-28 -11zM95 227l-14 30h330v429l20 -21z" />
    <glyph glyph-name="five" unicode="5" horiz-adv-x="627" 
d="M318 0q-72 0 -129 33.5t-90.5 91t-33.5 129.5q0 17 11 28t27 11q17 0 28.5 -11t11.5 -28q0 -50 23 -90t62.5 -63t89.5 -23t90 23t63 63t23 90t-23 90t-63 63t-90 23h-175q-17 0 -28 11.5t-11 27.5v274q0 16 11 27.5t28 11.5h351q16 0 27.5 -11.5t11.5 -27.5t-11 -27.5
t-28 -11.5h-313v-196h137q73 0 130 -33.5t90.5 -91t33.5 -129.5t-33.5 -129.5t-90.5 -91t-130 -33.5z" />
    <glyph glyph-name="six" unicode="6" horiz-adv-x="579" 
d="M300 0q-68 0 -121 30.5t-83.5 83.5t-30.5 121q0 67 30.5 120.5t83.5 84t121 30.5q67 0 120 -30.5t83.5 -84t30.5 -120.5q0 -68 -30.5 -121t-83.5 -83.5t-120 -30.5zM299 72q46 0 82.5 21t57.5 58t21 84t-21 84t-57.5 58.5t-82.5 21.5t-82 -21.5t-57 -58.5t-21 -84t21 -84
t57 -58t82 -21zM94 354l247 406q13 21 35 21q15 0 26 -9t13.5 -23t-5.5 -27l-165 -269z" />
    <glyph glyph-name="seven" unicode="7" horiz-adv-x="568" 
d="M163 0q-16 0 -27.5 11t-11.5 28q0 5 2 11t6 14l298 640h-344q-17 0 -28.5 11.5t-11.5 27.5t11.5 27.5t28.5 11.5h407q16 0 27 -11.5t11 -27.5q0 -5 -2 -10.5t-4 -10.5l-327 -700q-11 -22 -35 -22z" />
    <glyph glyph-name="eight" unicode="8" horiz-adv-x="593" 
d="M297 -4q-67 0 -120 31.5t-83.5 85.5t-30.5 122q0 66 30.5 118t83.5 82t120 30t120 -30t83 -82t30 -118q-1 -68 -31.5 -122t-83 -85.5t-118.5 -31.5zM297 66q44 0 79 22.5t55.5 60.5t20.5 86q0 46 -20 82.5t-55 57.5t-80 21t-80 -21t-55.5 -57.5t-20.5 -82.5q0 -48 20 -86
t55.5 -60.5t80.5 -22.5zM297 403q-55 0 -99 25t-69 68t-25 98q0 53 25 96t69 68t99 25q55 1 99 -23.5t69 -68t24 -97.5q0 -55 -25.5 -98t-69 -68t-97.5 -25zM297 470q33 0 59.5 16.5t42.5 45t16 63.5q1 34 -14.5 60.5t-42.5 41.5t-61 15q-51 0 -84.5 -33.5t-34.5 -83.5
q-1 -53 33 -89t86 -36z" />
    <glyph glyph-name="nine" unicode="9" horiz-adv-x="579" 
d="M279 782q68 0 121 -30.5t83.5 -83.5t30.5 -121q0 -67 -30.5 -120.5t-83.5 -84t-121 -30.5q-67 0 -120 30.5t-83.5 84t-30.5 120.5q0 68 30.5 121t83.5 83.5t120 30.5zM280 710q-46 0 -82.5 -21t-57.5 -58t-21 -84t21 -84t57.5 -58.5t82.5 -21.5t82 21.5t57 58.5t21 84
t-21 84t-57 58t-82 21zM485 428l-247 -406q-13 -21 -35 -21q-15 0 -26 9t-13.5 23t5.5 27l165 269z" />
    <glyph glyph-name="colon" unicode=":" horiz-adv-x="195" 
d="M90 424q-24 0 -41.5 16.5t-17.5 41.5t17 42t42 17q24 0 40.5 -17.5t16.5 -41.5t-16.5 -41t-40.5 -17zM92 -16q-24 0 -41 17t-17 41q0 25 17.5 42t40.5 17q24 0 41 -17.5t17 -41.5q0 -23 -16.5 -40.5t-41.5 -17.5z" />
    <glyph glyph-name="semicolon" unicode=";" horiz-adv-x="200" 
d="M81 -162q-10 0 -15.5 5.5t-5.5 14.5q0 15 9 27.5t18.5 26.5t9.5 34q0 18 -7 30t-16.5 21.5t-16.5 21t-7 28.5q0 25 16.5 40t41.5 15q30 0 49 -23.5t19 -65.5q0 -28 -8 -59t-22 -57.5t-31 -42.5t-34 -16zM92 424q-24 0 -41.5 16.5t-17.5 41.5t17 42t42 17q24 0 40.5 -17.5
t16.5 -41.5t-16.5 -41t-40.5 -17z" />
    <glyph glyph-name="less" unicode="&#x3c;" horiz-adv-x="547" 
d="M449 83l-389 234q-21 12 -21 35q0 19 21 35l389 234q19 9 38.5 0.5t19.5 -31.5t-19 -35l-374 -223v43l374 -224q19 -13 19 -34q0 -16 -9.5 -26t-23 -13t-25.5 5z" />
    <glyph glyph-name="equal" unicode="=" horiz-adv-x="508" 
d="M77 430q-16 0 -27 11.5t-11 27.5t11 27.5t27 11.5h353q16 0 27 -11.5t11 -27.5t-11 -27.5t-27 -11.5h-353zM77 195q-16 0 -27 11.5t-11 27.5q0 17 11 28t27 11h353q16 0 27 -11.5t11 -27.5t-11 -27t-27 -11z" />
    <glyph glyph-name="greater" unicode="&#x3e;" horiz-adv-x="547" 
d="M97 83q-12 -8 -25.5 -5t-23 13t-9.5 26q0 21 19 34l375 224v-43l-375 223q-19 12 -19 35t19.5 31.5t38.5 -0.5l389 -234q21 -16 21 -35q0 -23 -21 -35z" />
    <glyph glyph-name="question" unicode="?" horiz-adv-x="547" 
d="M273 177q-17 0 -28 11t-11 29q0 40 19.5 86t54.5 79q31 29 59 56t45.5 60t17.5 83q0 39 -19 71.5t-53.5 51.5t-80.5 19q-50 0 -86 -20.5t-55.5 -56.5t-19.5 -83q0 -17 -10.5 -27.5t-27.5 -10.5t-28 10.5t-11 27.5q0 69 30 121.5t83.5 82.5t124.5 30q66 0 118 -28.5
t82 -78t30 -113.5q0 -56 -20 -95t-52.5 -71.5t-71.5 -68.5q-31 -28 -41 -63t-10 -62q0 -18 -11 -29t-28 -11zM273 0q-25 0 -41.5 17t-16.5 41q0 25 17 42t41 17t41.5 -17t17.5 -42q0 -24 -17.5 -41t-41.5 -17z" />
    <glyph glyph-name="at" unicode="@" horiz-adv-x="1094" 
d="M548 -233q-112 0 -204.5 37t-160.5 105t-105 160.5t-37 204.5q0 111 37 204t105 161t160.5 105t204.5 37q111 0 204 -37t161 -105t105 -161t37 -204q0 -92 -25 -162.5t-68.5 -110.5t-101.5 -40q-51 0 -83.5 30.5t-32.5 79.5v38q-19 -32 -51.5 -56.5t-71 -38.5t-77.5 -14
q-79 0 -140 35t-95 97t-34 142t35 141.5t96.5 97t141.5 35.5t141.5 -35.5t96.5 -97t35 -141.5v-172q0 -32 11.5 -47.5t32.5 -15.5q32 0 57.5 30t40 83t14.5 122q0 94 -31.5 172.5t-89 136t-136 89t-172.5 31.5q-95 0 -173.5 -31.5t-136 -89t-88.5 -136t-31 -172.5
q0 -95 31 -173.5t88.5 -136t136 -88.5t173.5 -31q44 0 93.5 10t82.5 26q26 12 42.5 3.5t16.5 -34.5q0 -21 -30 -40t-83 -31t-122 -12zM548 79q57 0 101 24.5t69 68.5t25 102q0 57 -25 101t-69 69t-101 25q-58 0 -102 -25t-68.5 -69t-24.5 -101q0 -58 24.5 -102t68.5 -68.5
t102 -24.5z" />
    <glyph glyph-name="A" unicode="A" horiz-adv-x="703" 
d="M57 0q-23 0 -33 19t-2 37l294 698q11 27 38 27q26 0 37 -27l295 -699q9 -19 -2.5 -37t-32.5 -18q-12 0 -21.5 6t-15.5 18l-275 667h31l-277 -667q-5 -12 -14.5 -18t-21.5 -6zM123 186l30 67h406l30 -67h-466z" />
    <glyph glyph-name="B" unicode="B" horiz-adv-x="695" 
d="M144 0q-19 0 -31.5 10.5t-12.5 28.5v703q0 17 11 28t28 11h243q60 0 108.5 -25.5t77 -69.5t28.5 -102q0 -54 -29 -96t-76 -64q67 -18 108 -67.5t41 -125.5q0 -68 -31 -120t-85.5 -81.5t-124.5 -29.5h-255zM178 75h221q48 0 85 19t58 54t21 83q0 45 -21 78.5t-58 52
t-85 18.5h-221v-305zM178 455h204q60 0 99 34t39 95q0 60 -39 91t-99 31h-204v-251z" />
    <glyph glyph-name="C" unicode="C" horiz-adv-x="771" 
d="M451 -10q-81 0 -151.5 31t-124 86.5t-83.5 128t-30 155.5q0 82 29.5 154.5t83 127.5t124 86.5t152.5 31.5q72 0 131 -21t114 -67q9 -7 10.5 -16.5t-2.5 -18t-12 -12.5q-2 -8 -10 -12t-18.5 -3t-20.5 9q-39 34 -85 50.5t-107 16.5q-65 0 -121.5 -26t-99.5 -71t-67.5 -104
t-24.5 -125q0 -68 24.5 -127t67.5 -104t99.5 -70.5t121.5 -25.5q55 0 104 18t93 52q12 10 25.5 8t23.5 -12t10 -26q0 -8 -2.5 -14.5t-8.5 -13.5q-51 -47 -114 -66.5t-131 -19.5z" />
    <glyph glyph-name="D" unicode="D" horiz-adv-x="770" 
d="M139 0q-17 0 -28 11t-11 28v703q0 17 11 28t28 11h180q86 0 157.5 -28.5t123.5 -81t80.5 -123.5t28.5 -157t-28.5 -157.5t-80.5 -124t-123.5 -81t-157.5 -28.5h-180zM178 70h141q92 0 162.5 41.5t110.5 114t40 165.5t-40 165.5t-110.5 113.5t-162.5 41h-141v-641z" />
    <glyph glyph-name="E" unicode="E" horiz-adv-x="692" 
d="M139 0q-17 0 -28 11t-11 28v703q0 17 11 28t28 11h469q16 0 27.5 -10.5t11.5 -27.5q0 -15 -11.5 -26t-27.5 -11h-430v-276h313q17 0 28 -11t11 -27t-11 -27t-28 -11h-313v-279h430q16 0 27.5 -11t11.5 -26q0 -17 -11.5 -27.5t-27.5 -10.5h-469z" />
    <glyph glyph-name="F" unicode="F" horiz-adv-x="625" 
d="M77 0q-16 0 -27.5 11.5t-11.5 27.5v703q0 17 11 28t28 11h469q17 0 28 -10.5t11 -27.5q0 -15 -11 -26t-28 -11h-430v-276h313q17 0 28 -11t11 -27t-11 -27t-28 -11h-313v-315q0 -16 -11 -27.5t-28 -11.5z" />
    <glyph glyph-name="G" unicode="G" horiz-adv-x="771" 
d="M451 -10q-81 0 -151.5 31t-124 86.5t-83.5 128t-30 155.5q0 82 29.5 154.5t83 127.5t124 86.5t152.5 31.5q72 0 131 -21t114 -67q9 -7 10.5 -16.5t-2.5 -18t-12 -12.5q-2 -8 -10 -12t-18.5 -3t-20.5 9q-39 34 -85 50.5t-107 16.5q-65 0 -121.5 -26t-99.5 -71t-67.5 -104
t-24.5 -125q0 -68 24.5 -127t67.5 -104t99.5 -70.5t121.5 -25.5q55 0 104 18t93 52q12 10 25.5 8t23.5 -12t10 -26q0 -8 -2 -14.5t-9 -13.5q-51 -47 -114 -66.5t-131 -19.5zM707 104l-76 16v201h-156q-17 0 -28 10t-11 25t11 24.5t28 9.5h193q17 0 28 -10.5t11 -27.5v-248z
" />
    <glyph glyph-name="H" unicode="H" horiz-adv-x="844" 
d="M139 0q-17 0 -28 11t-11 28v703q0 17 11 28t28 11t28 -11t11 -28v-312h488v312q0 17 11 28t28 11t28 -11t11 -28v-703q0 -17 -11 -28t-28 -11t-28 11t-11 28v321h-488v-321q0 -17 -11 -28t-28 -11z" />
    <glyph glyph-name="I" unicode="I" horiz-adv-x="278" 
d="M139 0q-17 0 -28 11t-11 28v703q0 17 11 28t28 11t28 -11t11 -28v-703q0 -17 -11 -28t-28 -11z" />
    <glyph glyph-name="J" unicode="J" horiz-adv-x="614" 
d="M280 -10q-67 0 -120 31t-84 84t-31 119q0 17 11 28t28 11t28 -11t11 -28q0 -45 21 -81.5t56.5 -57.5t79.5 -21t79.5 21.5t56 57.5t20.5 81v518q0 17 11 28t28 11t28 -11t11 -28v-518q0 -66 -31 -119t-84 -84t-119 -31z" />
    <glyph glyph-name="K" unicode="K" horiz-adv-x="655" 
d="M139 0q-16 0 -27.5 11.5t-11.5 27.5v703q0 16 11.5 27.5t27.5 11.5t27.5 -11.5t11.5 -27.5v-340l365 365q8 8 15 11t16 3q18 0 27 -11t8.5 -26.5t-12.5 -29.5l-274 -274l277 -378q9 -13 7.5 -27.5t-11.5 -24.5t-24 -10q-22 0 -33 17l-272 368l-89 -90v-256
q0 -16 -11.5 -27.5t-27.5 -11.5z" />
    <glyph glyph-name="L" unicode="L" horiz-adv-x="633" 
d="M139 0q-16 0 -27.5 11t-11.5 28v703q0 16 11.5 27.5t27.5 11.5t27.5 -11.5t11.5 -27.5v-668h391q16 0 27.5 -10.5t11.5 -26.5t-11.5 -26.5t-27.5 -10.5h-430z" />
    <glyph glyph-name="M" unicode="M" horiz-adv-x="981" 
d="M139 0q-16 0 -27.5 11.5t-11.5 27.5v703q0 17 11.5 28t27.5 11q24 0 35 -20l337 -670h-34l331 670q12 20 35 20q16 0 27 -11t11 -28v-703q0 -16 -11 -27.5t-27 -11.5q-17 0 -28.5 11.5t-11.5 27.5v602l17 -1l-295 -603q-11 -19 -34 -19q-25 0 -36 24l-297 594l20 5v-602
q0 -16 -11.5 -27.5t-27.5 -11.5z" />
    <glyph glyph-name="N" unicode="N" horiz-adv-x="825" 
d="M139 0q-17 0 -28 11t-11 28v703q0 17 11 28t28 11q18 0 30 -14l478 -628v603q0 17 11 28t28 11q16 0 27.5 -11t11.5 -28v-703q0 -17 -11.5 -28t-27.5 -11q-8 0 -16 3t-13 10l-479 628v-602q0 -17 -11.5 -28t-27.5 -11z" />
    <glyph glyph-name="O" unicode="O" horiz-adv-x="921" 
d="M461 -10q-87 0 -160 30t-126.5 84t-83 127t-29.5 160q0 86 29.5 159t83 127t126.5 84t160 30q86 0 159 -30t127 -84t83.5 -127t29.5 -159q0 -87 -29.5 -160t-83.5 -127t-127 -84t-159 -30zM461 64q69 0 128 24.5t102.5 69t67.5 104t24 129.5q0 69 -24 128.5t-67.5 104
t-102.5 69t-128 24.5q-70 0 -129 -24.5t-102.5 -69t-67.5 -104t-24 -128.5q0 -70 24 -129.5t67.5 -104t102.5 -69t129 -24.5z" />
    <glyph glyph-name="P" unicode="P" horiz-adv-x="612" 
d="M139 0q-17 0 -28 11t-11 28v703q0 17 11 28t28 11h200q74 0 131 -32.5t89 -89.5t32 -132q0 -73 -32 -129.5t-89 -89t-131 -32.5h-161v-237q0 -17 -11 -28t-28 -11zM178 351h161q51 0 91 22.5t62.5 62.5t22.5 91q0 53 -22.5 93t-62.5 63t-91 23h-161v-355z" />
    <glyph glyph-name="Q" unicode="Q" horiz-adv-x="921" 
d="M755 12l-216 215q-12 12 -12 27t12 27q11 11 26 11t27 -11l217 -216q11 -12 11 -26.5t-11 -26.5q-12 -12 -27 -12t-27 12zM461 -10q-87 0 -160 30t-126.5 84t-83 127t-29.5 160q0 86 29.5 159t83 127t126.5 84t160 30q86 0 159 -30t127 -84t83.5 -127t29.5 -159
q0 -87 -29.5 -160t-83.5 -127t-127 -84t-159 -30zM461 64q69 0 128 24.5t102.5 69t67.5 104t24 129.5q0 69 -24 128.5t-67.5 104t-102.5 69t-128 24.5q-70 0 -129 -24.5t-102.5 -69t-67.5 -104t-24 -128.5q0 -70 24 -129.5t67.5 -104t102.5 -69t129 -24.5z" />
    <glyph glyph-name="R" unicode="R" horiz-adv-x="618" 
d="M139 0q-17 0 -28 11t-11 28v703q0 17 11 28t28 11h187q73 0 130 -30.5t89.5 -85t32.5 -125.5q0 -68 -32.5 -121t-89.5 -83t-130 -30h-148v-267q0 -17 -11 -28t-28 -11zM557 0q-13 0 -20.5 5t-13.5 15l-192 306l78 20l179 -286q15 -24 5.5 -42t-36.5 -18zM178 381h148
q51 0 90.5 20.5t62.5 56.5t23 82q0 49 -23 86.5t-62.5 58.5t-90.5 21h-148v-325z" />
    <glyph glyph-name="S" unicode="S" horiz-adv-x="662" 
d="M340 -10q-64 0 -118.5 18.5t-94.5 52.5t-61 79q-8 16 -0.5 29.5t25.5 18.5q14 4 27.5 -3t20.5 -21q15 -29 44 -52t69 -35.5t88 -12.5q53 0 94 17.5t64.5 51t23.5 81.5q0 61 -45 105t-141 56q-117 14 -183 72.5t-66 143.5q0 61 32.5 106t89.5 69.5t131 24.5
q55 0 100 -17.5t78.5 -46t54.5 -62.5q10 -16 6.5 -31t-17.5 -23q-15 -7 -30.5 -2t-23.5 19q-15 23 -37.5 43.5t-54.5 32.5t-77 13q-79 0 -127 -33.5t-48 -97.5q0 -34 18 -62.5t59.5 -49t111.5 -30.5q125 -18 185.5 -76.5t60.5 -152.5q0 -54 -19.5 -96t-55 -70.5t-83 -43.5
t-101.5 -15z" />
    <glyph glyph-name="T" unicode="T" horiz-adv-x="655" 
d="M327 0q-16 0 -27.5 11.5t-11.5 27.5v742h78v-742q0 -16 -11 -27.5t-28 -11.5zM51 710q-16 0 -26 10t-10 25q0 16 10 26t26 10h553q16 0 26 -10t10 -26q0 -15 -10 -25t-26 -10h-553z" />
    <glyph glyph-name="U" unicode="U" horiz-adv-x="819" 
d="M411 -16q-91 0 -161.5 35t-110 97t-39.5 142v484q0 17 11 28t28 11t28 -11t11 -28v-484q0 -59 29.5 -104t82.5 -70.5t121 -25.5q67 0 119 25.5t81.5 70.5t29.5 104v484q0 17 11 28t28 11q18 0 28.5 -11t10.5 -28v-484q0 -80 -39.5 -142t-109 -97t-159.5 -35z" />
    <glyph glyph-name="V" unicode="V" horiz-adv-x="716" 
d="M359 0q-25 0 -36 25l-297 695q-11 28 -1.5 44.5t33.5 16.5q25 0 36 -25l276 -660h-22l275 658q6 15 15 21t24 6q23 0 31 -17.5t-1 -39.5l-298 -699q-6 -14 -15 -19.5t-20 -5.5z" />
    <glyph glyph-name="W" unicode="W" horiz-adv-x="938" 
d="M267 0q-14 0 -24.5 9t-14.5 23l-205 693q-7 24 2.5 40t30.5 16q12 0 22.5 -6.5t15.5 -23.5l185 -644h-23l175 627q3 11 13.5 18t23.5 7q12 0 23 -6.5t14 -19.5l176 -626h-23l186 648q7 26 38 26q21 0 29 -16.5t2 -39.5l-204 -692q-5 -16 -15.5 -24.5t-24.5 -8.5t-24.5 9
t-14.5 23l-174 635h24l-173 -634q-5 -15 -15.5 -24t-24.5 -9z" />
    <glyph glyph-name="X" unicode="X" horiz-adv-x="707" 
d="M84 0q-17 0 -26.5 10t-10.5 25t9 28l261 356l36 29l234 319q11 14 30 14q16 0 25.5 -10.5t10.5 -25t-7 -25.5l-246 -334l-34 -28l-254 -346q-11 -12 -28 -12zM625 0q-8 0 -16 3.5t-14 10.5l-249 345l-31 23l-243 338q-9 12 -8 26.5t10.5 24.5t25.5 10q19 0 30 -14
l235 -325l28 -19l260 -360q9 -12 8.5 -27t-10 -25.5t-26.5 -10.5z" />
    <glyph glyph-name="Y" unicode="Y" horiz-adv-x="648" 
d="M324 0q-16 0 -27.5 11.5t-11.5 27.5v250l-272 431q-10 15 -7.5 29t12.5 23t25 9q12 0 19.5 -5t13.5 -14l270 -435h-42l269 433q7 11 15.5 16t20.5 5q14 0 23.5 -9.5t11 -23.5t-7.5 -28l-273 -431v-250q0 -16 -11.5 -27.5t-27.5 -11.5z" />
    <glyph glyph-name="Z" unicode="Z" horiz-adv-x="724" 
d="M88 0q-17 0 -27.5 11t-11.5 25.5t8 26.5l517 648h-482q-18 0 -28 9t-10 25q0 15 11 25.5t28 10.5h542q18 0 28 -11t11.5 -25.5t-7.5 -24.5l-519 -650h487q16 0 27.5 -9.5t11.5 -25.5q0 -15 -11.5 -25t-27.5 -10h-547z" />
    <glyph glyph-name="bracketleft" unicode="[" horiz-adv-x="302" 
d="M104 -234q-17 0 -28 11t-11 28v938q0 16 11 27.5t28 11.5h158q17 0 28.5 -11.5t11.5 -27.5q0 -17 -11.5 -28.5t-28.5 -11.5h-119v-858h119q17 0 28.5 -11.5t11.5 -28.5t-11.5 -28t-28.5 -11h-158z" />
    <glyph glyph-name="backslash" unicode="\" horiz-adv-x="469" 
d="M394 -80q-11 0 -21 5.5t-15 17.5l-316 783q-3 7 -3 16q0 17 11.5 28.5t28.5 11.5q11 0 21 -6t14 -17l315 -784q4 -8 4 -16q0 -17 -11.5 -28t-27.5 -11z" />
    <glyph glyph-name="bracketright" unicode="]" horiz-adv-x="302" 
d="M40 -234q-17 0 -28.5 11t-11.5 28t11.5 28.5t28.5 11.5h119v858h-119q-17 0 -28.5 11.5t-11.5 28.5q0 16 11.5 27.5t28.5 11.5h158q16 0 27.5 -11.5t11.5 -27.5v-938q0 -17 -11.5 -28t-27.5 -11h-158z" />
    <glyph glyph-name="asciicircum" unicode="^" horiz-adv-x="469" 
d="M82 470q-17 0 -28.5 11t-11.5 27q0 6 1.5 11t4.5 9l158 238q12 16 32 16q10 0 17.5 -4.5t13.5 -11.5l158 -238q6 -8 6 -20q0 -16 -11 -27t-28 -11q-20 0 -31 14l-125 188l-126 -188q-12 -14 -30 -14z" />
    <glyph glyph-name="underscore" unicode="_" horiz-adv-x="469" 
d="M1 -78q-17 0 -28 11.5t-11 27.5t11 27.5t28 11.5h479q16 0 27 -11.5t11 -27.5t-11 -27.5t-27 -11.5h-479z" />
    <glyph glyph-name="grave" unicode="`" horiz-adv-x="273" 
d="M192 592q-15 0 -26 11l-113 112q-10 10 -10 27t11 28.5t27 11.5t28 -12l112 -113q10 -9 10 -25q0 -17 -11 -28.5t-28 -11.5z" />
    <glyph glyph-name="a" unicode="a" 
d="M331 -5q-77 0 -138 36.5t-96.5 99.5t-35.5 142q0 80 36.5 143t99.5 99.5t142 36.5t141.5 -36.5t99 -99.5t37.5 -143l-31 -24q0 -72 -33.5 -129.5t-91 -91t-130.5 -33.5zM339 65q58 0 103.5 27t72 74.5t26.5 106.5q0 60 -26.5 107t-72 74.5t-103.5 27.5q-57 0 -103 -27.5
t-73 -74.5t-27 -107q0 -59 27 -106.5t73 -74.5t103 -27zM578 0q-17 0 -28 10.5t-11 27.5v171l19 79l59 -15v-235q0 -17 -11 -27.5t-28 -10.5z" />
    <glyph glyph-name="b" unicode="b" horiz-adv-x="707" 
d="M367 -5q-78 0 -140.5 36t-99 98.5t-37.5 140.5v472q0 18 10.5 28.5t28.5 10.5q17 0 27.5 -10.5t10.5 -28.5v-294q33 47 87.5 75.5t121.5 28.5q77 0 138 -36.5t96.5 -99.5t35.5 -142q0 -80 -36.5 -143t-99.5 -99.5t-143 -36.5zM367 65q58 0 104 27.5t72.5 74.5t26.5 107
q0 59 -26.5 106.5t-72.5 74.5t-104 27q-57 0 -103 -27t-72 -74.5t-26 -106.5q0 -60 26 -107t72 -74.5t103 -27.5z" />
    <glyph glyph-name="c" unicode="c" horiz-adv-x="596" 
d="M334 -5q-79 0 -140.5 36.5t-97 99.5t-35.5 142q0 80 34 143t93 99.5t136 36.5q61 0 112.5 -24t90.5 -72q11 -12 8 -25.5t-17 -23.5q-11 -8 -24.5 -5.5t-23.5 14.5q-58 66 -146 66q-56 0 -98.5 -27t-66 -74t-23.5 -108q0 -60 25 -107t70 -74t103 -27q39 0 71.5 10.5
t57.5 32.5q12 10 25 11t24 -8q12 -11 13.5 -25t-9.5 -24q-73 -67 -182 -67z" />
    <glyph glyph-name="d" unicode="d" horiz-adv-x="707" 
d="M339 -5q-79 0 -142 36.5t-99.5 99.5t-36.5 143q0 79 35.5 142t96.5 99.5t138 36.5q67 0 121 -28.5t87 -75.5v294q0 18 11 28.5t28 10.5t28 -10.5t11 -28.5v-472q-2 -78 -38.5 -140.5t-99 -98.5t-140.5 -36zM339 65q58 0 103.5 27.5t72 74.5t26.5 107q0 59 -26.5 106.5
t-72 74.5t-103.5 27q-57 0 -103 -27t-73 -74.5t-27 -106.5q0 -60 27 -107t73 -74.5t103 -27.5z" />
    <glyph glyph-name="e" unicode="e" horiz-adv-x="614" 
d="M338 -5q-81 0 -143.5 35.5t-98 98.5t-35.5 144q0 82 33.5 144.5t92.5 98.5t136 36q76 0 132.5 -34.5t87.5 -95.5t31 -139q0 -16 -10 -25.5t-26 -9.5h-425v64h433l-43 -31q1 58 -21 104t-62.5 72t-96.5 26q-57 0 -100 -27t-66.5 -74.5t-23.5 -108.5t26.5 -108t72.5 -74
t106 -27q36 0 72.5 12.5t58.5 31.5q11 9 25 9.5t24 -7.5q13 -12 13.5 -26t-11.5 -24q-33 -28 -84 -46.5t-98 -18.5z" />
    <glyph glyph-name="f" unicode="f" horiz-adv-x="366" 
d="M158 0q-15 0 -26 10.5t-11 28.5v507q0 70 24 123t71 82.5t115 29.5q17 0 28 -10t11 -25t-11 -25t-28 -10q-45 0 -74.5 -20.5t-44 -57t-14.5 -83.5v-511q0 -18 -10.5 -28.5t-29.5 -10.5zM57 460q-16 0 -25.5 9.5t-9.5 23.5q0 15 9.5 24.5t25.5 9.5h261q16 0 25.5 -9.5
t9.5 -24.5q0 -14 -9.5 -23.5t-25.5 -9.5h-261z" />
    <glyph glyph-name="g" unicode="g" 
d="M331 -5q-79 0 -140 35.5t-95.5 98.5t-34.5 144q0 82 36 145t99 98.5t143 35.5q81 0 143.5 -35.5t98 -98.5t36.5 -145l-45 -24q0 -74 -31 -131.5t-85.5 -90t-124.5 -32.5zM341 -216q-79 0 -139 29.5t-99 80.5q-11 12 -9.5 26t14.5 23t29 6t25 -15q29 -36 74.5 -58
t105.5 -22q56 0 101 27t71.5 76t26.5 115v152l29 58l47 -9v-204q0 -81 -36 -145.5t-98 -102t-142 -37.5zM339 65q59 0 104.5 26.5t71.5 73.5t26 108t-26 108.5t-71.5 74t-104.5 26.5t-105 -26.5t-72 -74t-26 -108.5t26 -108t72 -73.5t105 -26.5z" />
    <glyph glyph-name="h" unicode="h" 
d="M559 0q-17 0 -28 11t-11 27v260q0 62 -23.5 102t-64 60t-91.5 20q-49 0 -88.5 -19t-62.5 -52t-23 -75h-55q2 63 34 112.5t85 78t118 28.5q71 0 127 -29.5t88.5 -86.5t32.5 -139v-260q0 -16 -11 -27t-27 -11zM129 0q-18 0 -28.5 10.5t-10.5 27.5v470q0 18 10.5 28.5
t28.5 10.5q17 0 27.5 -10.5t10.5 -28.5v-470q0 -17 -10.5 -27.5t-27.5 -10.5zM129 223q-18 0 -28.5 11t-10.5 28v480q0 18 10.5 28.5t28.5 10.5q17 0 27.5 -10.5t10.5 -28.5v-480q0 -17 -10.5 -28t-27.5 -11z" />
    <glyph glyph-name="i" unicode="i" horiz-adv-x="289" 
d="M145 0q-18 0 -28.5 10.5t-10.5 28.5v469q0 18 10.5 28.5t28.5 10.5q17 0 27.5 -10.5t10.5 -28.5v-469q0 -18 -10.5 -28.5t-27.5 -10.5zM144 651q-22 0 -38 16t-16 39q0 25 16.5 39.5t38.5 14.5q21 0 37.5 -14.5t16.5 -39.5q0 -23 -16 -39t-39 -16z" />
    <glyph glyph-name="j" unicode="j" horiz-adv-x="285" 
d="M-55 -234q-17 0 -28 10.5t-11 28.5q0 17 11 28t28 11q46 0 81 20t55.5 55t20.5 81v508q0 18 10.5 28.5t27.5 10.5t28 -10.5t11 -28.5v-508q0 -68 -30 -121t-83 -83t-121 -30zM139 651q-22 0 -38 16t-16 39q0 25 16.5 39.5t38.5 14.5q21 0 37.5 -14.5t16.5 -39.5
q0 -23 -16 -39t-39 -16z" />
    <glyph glyph-name="k" unicode="k" horiz-adv-x="572" 
d="M153 183l-47 51l342 309q12 11 25 10.5t24 -12.5t10.5 -25.5t-12.5 -23.5zM128 0q-17 0 -27.5 10.5t-10.5 27.5v705q0 17 10.5 27.5t27.5 10.5t27.5 -10.5t10.5 -27.5v-705q0 -17 -10.5 -27.5t-27.5 -10.5zM498 5q-13 -11 -27 -9.5t-24 14.5l-223 274l54 48l225 -277
q10 -12 9 -25.5t-14 -24.5z" />
    <glyph glyph-name="l" unicode="l" horiz-adv-x="282" 
d="M208 0q-40 0 -71.5 22t-49 61t-17.5 90v570q0 17 10.5 27.5t27.5 10.5t27.5 -10.5t10.5 -27.5v-570q0 -43 17.5 -70t44.5 -27h25q15 0 24 -10.5t9 -27.5t-12.5 -27.5t-32.5 -10.5h-13z" />
    <glyph glyph-name="m" unicode="m" horiz-adv-x="947" 
d="M829 0q-17 0 -28 10.5t-11 27.5v288q0 71 -37 112.5t-95 41.5q-62 0 -101.5 -41.5t-38.5 -110.5h-69q1 67 29 118t77 79t111 28q59 0 104.5 -28t71 -79t25.5 -120v-288q0 -17 -10.5 -27.5t-27.5 -10.5zM129 0q-18 0 -28.5 10.5t-10.5 27.5v470q0 17 10.5 28t28.5 11
q17 0 27.5 -11t10.5 -28v-470q0 -17 -10.5 -27.5t-27.5 -10.5zM480 0q-17 0 -28 10.5t-11 27.5v288q0 71 -37 112.5t-95 41.5q-62 0 -102 -40.5t-40 -105.5h-55q2 64 28.5 113.5t72.5 77.5t104 28q59 0 104.5 -28t71 -79t25.5 -120v-288q0 -17 -10.5 -27.5t-27.5 -10.5z" />
    <glyph glyph-name="n" unicode="n" 
d="M559 0q-17 0 -28 11t-11 27v260q0 62 -23.5 102t-64 60t-91.5 20q-49 0 -88.5 -19t-62.5 -52t-23 -75h-55q2 63 34 112.5t85 78t118 28.5q71 0 127 -29.5t88.5 -86.5t32.5 -139v-260q0 -16 -11 -27t-27 -11zM129 0q-18 0 -28.5 10.5t-10.5 27.5v470q0 18 10.5 28.5
t28.5 10.5q17 0 27.5 -10.5t10.5 -28.5v-470q0 -17 -10.5 -27.5t-27.5 -10.5z" />
    <glyph glyph-name="o" unicode="o" 
d="M339 -5q-80 0 -143 36t-99 99t-36 143q0 81 36 144t99 99t143 36t142.5 -36t98.5 -99t37 -144q0 -80 -36.5 -143t-99 -99t-142.5 -36zM339 65q58 0 104 27t72 74t26 107t-26 107.5t-72 74.5t-104 27t-104 -27t-72.5 -74.5t-26.5 -107.5t26.5 -107t72.5 -74t104 -27z" />
    <glyph glyph-name="p" unicode="p" horiz-adv-x="707" 
d="M129 -234q-18 0 -28.5 10.5t-10.5 28.5v472q1 78 37.5 140.5t99 98.5t140.5 36q80 0 143 -36.5t99.5 -99.5t36.5 -143q0 -79 -35.5 -142t-96.5 -99.5t-138 -36.5q-67 0 -121.5 28.5t-87.5 75.5v-294q0 -18 -10.5 -28.5t-27.5 -10.5zM367 65q58 0 104 27t72.5 74.5
t26.5 106.5q0 60 -26.5 107t-72.5 74.5t-104 27.5q-57 0 -103 -27.5t-72 -74.5t-26 -107q0 -59 26 -106.5t72 -74.5t103 -27z" />
    <glyph glyph-name="q" unicode="q" horiz-adv-x="707" 
d="M578 -234q-17 0 -28 10.5t-11 28.5v294q-33 -47 -87 -75.5t-121 -28.5q-77 0 -138 36.5t-96.5 99.5t-35.5 142q0 80 36.5 143t99.5 99.5t142 36.5q78 0 140.5 -36t99 -98.5t38.5 -140.5v-472q0 -18 -11 -28.5t-28 -10.5zM339 65q58 0 103.5 27t72 74.5t26.5 106.5
q0 60 -26.5 107t-72 74.5t-103.5 27.5q-57 0 -103 -27.5t-73 -74.5t-27 -107q0 -59 27 -106.5t73 -74.5t103 -27z" />
    <glyph glyph-name="r" unicode="r" horiz-adv-x="458" 
d="M122 337q3 62 32.5 111t77 77t105.5 28q46 0 71 -13t19 -38q-4 -15 -13.5 -20t-23 -4t-30.5 2q-56 5 -99.5 -11.5t-69 -50.5t-25.5 -81h-44zM128 0q-18 0 -28 10t-10 28v471q0 18 10 28t28 10t28 -10t10 -28v-471q0 -18 -10 -28t-28 -10z" />
    <glyph glyph-name="s" unicode="s" horiz-adv-x="539" 
d="M281 -5q-59 0 -117 20t-94 60q-11 12 -9 27t15 26q14 10 29 8t25 -13q24 -28 63.5 -43t87.5 -15q74 0 107 25.5t34 61.5q0 36 -34 59.5t-112 36.5q-101 16 -148 56t-47 95q0 51 27 85t72 51t99 17q67 0 115.5 -23t78.5 -62q10 -13 8 -27t-16 -23q-12 -7 -27.5 -4.5
t-26.5 14.5q-25 29 -58 42.5t-76 13.5q-55 0 -88 -22.5t-33 -56.5q0 -23 12.5 -40t43 -30t85.5 -22q75 -12 118.5 -35.5t62 -55t18.5 -68.5q0 -47 -27.5 -82.5t-76 -55.5t-111.5 -20z" />
    <glyph glyph-name="t" unicode="t" horiz-adv-x="402" 
d="M304 0q-53 0 -94.5 25t-65.5 68.5t-24 99.5v489q0 17 10.5 28t27.5 11t28 -11t11 -28v-489q0 -51 30 -83.5t77 -32.5h27q16 0 26 -11t10 -28t-12 -27.5t-30 -10.5h-21zM55 460q-15 0 -25 9.5t-10 23.5q0 15 10 24.5t25 9.5h255q15 0 25 -9.5t10 -24.5q0 -14 -10 -23.5
t-25 -9.5h-255z" />
    <glyph glyph-name="u" unicode="u" 
d="M328 -6q-71 0 -127 29.5t-88.5 86.5t-32.5 139v260q0 16 11 27t27 11q17 0 28 -11t11 -27v-260q0 -62 23.5 -102t64 -60t91.5 -20q49 0 88.5 19t62.5 52t23 75h55q-3 -63 -34.5 -112.5t-84.5 -78t-118 -28.5zM548 0q-17 0 -27.5 10.5t-10.5 28.5v470q0 17 10.5 27.5
t27.5 10.5t28 -10.5t11 -27.5v-470q0 -18 -11 -28.5t-28 -10.5z" />
    <glyph glyph-name="v" unicode="v" horiz-adv-x="553" 
d="M277 0q-24 0 -36 26l-222 471q-6 13 -1 26t20 20q14 7 27 2t20 -18l213 -461h-41l210 461q6 14 20.5 18.5t28.5 -1.5q14 -7 19 -20.5t-1 -25.5l-219 -472q-12 -26 -38 -26z" />
    <glyph glyph-name="w" unicode="w" horiz-adv-x="740" 
d="M214 0q-13 0 -23 7t-14 18l-156 468q-6 25 1 39.5t28 14.5q13 0 23 -7t15 -22l139 -425h-22l129 424q4 13 13.5 21.5t24.5 8.5t24.5 -8t13.5 -22l123 -414h-17l136 415q10 29 37 29q22 0 30 -16.5t0 -37.5l-156 -468q-4 -11 -13.5 -18t-22.5 -7t-23.5 7t-13.5 18
l-126 418h12l-126 -418q-4 -12 -14 -18.5t-22 -6.5z" />
    <glyph glyph-name="x" unicode="x" horiz-adv-x="548" 
d="M472 0q-12 0 -19.5 4t-15.5 14l-173 220l-30 26l-174 221q-11 13 -10.5 27t9.5 24.5t26 10.5t29 -12l168 -215l27 -22l186 -238q13 -16 11 -30t-12.5 -22t-21.5 -8zM76 0q-16 0 -25.5 10t-10 24t10.5 27l184 230l43 -57l-175 -222q-9 -12 -27 -12zM310 260l-49 50
l173 219q7 10 15.5 14t17.5 4q17 0 26 -10.5t8.5 -25t-10.5 -27.5z" />
    <glyph glyph-name="y" unicode="y" horiz-adv-x="548" 
d="M184 -238q-8 0 -18 4q-34 15 -19 48l323 712q15 32 48 18q34 -14 19 -47l-324 -712q-10 -23 -29 -23zM295 17q-15 -7 -28 -2.5t-21 19.5l-223 462q-7 15 -2 28t20 20t28 2.5t20 -19.5l219 -462q8 -15 5 -28t-18 -20z" />
    <glyph glyph-name="z" unicode="z" horiz-adv-x="549" 
d="M135 26l-63 34l372 473l52 -44zM100 0q-35 0 -35 35t35 35h371q35 0 35 -35t-35 -35h-371zM96 477q-35 0 -35 35t35 35h371q35 0 35 -35t-35 -35h-371z" />
    <glyph glyph-name="braceleft" unicode="{" horiz-adv-x="378" 
d="M327 -234q-156 0 -156 156v234q0 79 -79 79q-16 0 -27.5 11t-11.5 27q0 17 11.5 28t27.5 11q79 0 79 79v234q0 157 156 157q16 0 27 -11.5t11 -28.5q0 -16 -11 -27t-27 -11q-79 0 -79 -79v-234q0 -38 -10 -67t-29 -51q39 -43 39 -117v-234q0 -78 79 -78q16 0 27 -11.5
t11 -27.5q0 -17 -11 -28t-27 -11z" />
    <glyph glyph-name="bar" unicode="|" horiz-adv-x="391" 
d="M195 -234q-16 0 -27.5 11t-11.5 28v938q0 16 11.5 27.5t27.5 11.5q17 0 28 -11.5t11 -27.5v-938q0 -17 -11 -28t-28 -11z" />
    <glyph glyph-name="braceright" unicode="}" horiz-adv-x="378" 
d="M51 -234q-16 0 -27 11t-11 28q0 16 11 27.5t27 11.5q79 0 79 78v234q0 74 39 117q-19 22 -29 51t-10 67v234q0 79 -79 79q-16 0 -27 11t-11 27q0 17 11 28.5t27 11.5q156 0 156 -157v-234q0 -79 79 -79q16 0 27.5 -11t11.5 -28q0 -16 -11.5 -27t-27.5 -11q-79 0 -79 -79
v-234q0 -156 -156 -156z" />
    <glyph glyph-name="asciitilde" unicode="~" horiz-adv-x="469" 
d="M328 307q-32 0 -56 11t-41 22q-21 13 -34.5 18t-25.5 5q-18 0 -34.5 -8.5t-31.5 -26.5q-9 -13 -23 -17t-27 3t-15.5 21.5t6.5 27.5q25 32 58 49.5t69 17.5q31 0 54 -11t39 -21q19 -12 32 -18t29 -6t28 5.5t21 14.5q11 11 22.5 15.5t24.5 -3.5q14 -7 17 -22t-7 -28
q-39 -49 -105 -49z" />
    <glyph glyph-name="uni00A0" unicode="&#xa0;" horiz-adv-x="293" 
 />
    <glyph glyph-name="exclamdown" unicode="&#xa1;" horiz-adv-x="266" 
d="M158 371q-16 0 -27.5 -11.5t-11.5 -27.5v-526q0 -17 11.5 -28.5t27.5 -11.5q17 0 28 11.5t11 28.5v526q0 16 -12 27.5t-27 11.5zM158 548q-24 0 -41 -17t-17 -41q0 -25 17 -42t41 -17t41 17.5t17 41.5t-17 41t-41 17z" />
    <glyph glyph-name="cent" unicode="&#xa2;" horiz-adv-x="596" 
d="M181 -97q-15 0 -23 11.5t-1 31.5l257 683q8 21 29 21q16 0 23 -12.5t2 -26.5l-257 -685q-9 -23 -30 -23zM334 -5q-79 0 -140.5 36.5t-97 99.5t-35.5 142q0 80 34 143t93 99.5t136 36.5q61 0 112.5 -24t90.5 -72q11 -12 8 -25.5t-17 -23.5q-11 -8 -24.5 -5.5t-23.5 14.5
q-58 66 -146 66q-56 0 -98.5 -27t-66 -74t-23.5 -108q0 -60 25 -107t70 -74t103 -27q39 0 71.5 10.5t57.5 32.5q12 10 25 11t24 -8q12 -11 13.5 -25t-9.5 -24q-73 -67 -182 -67z" />
    <glyph glyph-name="sterling" unicode="&#xa3;" horiz-adv-x="508" 
d="M118 0q-18 0 -28.5 11.5t-10.5 27.5q0 8 2 15q29 67 42.5 131t13.5 127h-59q-17 0 -28 12t-11 28t11 27t28 11h52q-17 46 -28.5 79t-17 61t-5.5 56q0 54 26.5 98.5t71 71t98.5 26.5q48 0 87.5 -17.5t69.5 -52.5q8 -9 15.5 -20t7.5 -22q0 -17 -11.5 -28t-27.5 -11
q-18 0 -26 11q-24 30 -50.5 47t-63.5 17q-34 0 -61 -16.5t-42.5 -44t-15.5 -61.5q0 -28 6.5 -55.5t18.5 -61t27 -77.5h145q16 0 27 -11t11 -27t-11 -28t-27 -12h-139q0 -56 -10 -114.5t-31 -119.5h241l16 30t15 29q5 9 13 14t20 5q17 0 28 -11.5t11 -27.5q0 -10 -4 -18
l-38 -76q-6 -11 -15.5 -17t-20.5 -6h-322z" />
    <glyph glyph-name="currency" unicode="&#xa4;" horiz-adv-x="501" 
d="M89 160q-19 0 -31.5 13t-12.5 32q0 18 13 31l40 38q-25 43 -25.5 90.5t24.5 91.5l-39 40q-13 13 -13 32t12.5 31.5t31.5 12.5q18 0 31 -11l39 -42q44 27 92.5 25.5t88.5 -23.5l40 39q8 5 15 8.5t16 3.5q20 0 32.5 -12.5t12.5 -31.5q0 -20 -13 -33l-39 -36q24 -43 25 -91
t-24 -91l38 -40q13 -14 13 -32q0 -19 -12.5 -32t-31.5 -13q-9 0 -16.5 3t-14.5 9l-38 41q-43 -25 -90 -25t-91 23l-42 -39q-13 -12 -31 -12zM251 269q26 0 48 13.5t35 35.5t13 48q0 27 -13.5 49t-35 35.5t-47.5 13.5q-27 0 -49 -13.5t-35 -36t-13 -48.5q0 -25 13 -47.5
t35 -36t49 -13.5z" />
    <glyph glyph-name="yen" unicode="&#xa5;" horiz-adv-x="648" 
d="M165 290q-17 0 -27 9t-10 25t10 25t27 9h319q16 0 26.5 -9t10.5 -25t-10.5 -25t-26.5 -9h-319zM165 162q-17 0 -27 9t-10 25t10 25t27 9h319q16 0 26.5 -9t10.5 -25t-10.5 -25t-26.5 -9h-319zM324 0q-16 0 -27.5 11.5t-11.5 27.5v250l-272 431q-10 15 -7.5 29t12.5 23
t25 9q12 0 19.5 -5t13.5 -14l270 -435h-42l269 433q7 11 15.5 16t20.5 5q14 0 23.5 -9.5t11 -23.5t-7.5 -28l-273 -431v-250q0 -16 -11.5 -27.5t-27.5 -11.5z" />
    <glyph glyph-name="brokenbar" unicode="&#xa6;" horiz-adv-x="234" 
d="M117 430q-17 0 -28 11.5t-11 27.5v351q0 17 11 28.5t28 11.5q16 0 27.5 -11.5t11.5 -28.5v-351q0 -16 -11.5 -27.5t-27.5 -11.5zM117 -234q-17 0 -28 11t-11 28v347q0 16 11 27t28 11q16 0 27.5 -11t11.5 -27v-347q0 -17 -11.5 -28t-27.5 -11z" />
    <glyph glyph-name="section" unicode="&#xa7;" horiz-adv-x="469" 
d="M236 -234q-54 0 -99 26.5t-71.5 71t-26.5 98.5q0 16 11.5 27.5t28.5 11.5q16 0 27 -11.5t11 -27.5q0 -33 16.5 -59.5t44 -42.5t58.5 -16t58.5 16t44 42.5t16.5 59.5q0 31 -16.5 57.5t-43.5 42.5t-59 16q-54 0 -98.5 26.5t-71.5 70.5t-27 98q0 46 20 86t59 71
q-41 32 -60 71t-19 85q0 54 26.5 98t71.5 70.5t99 26.5t99 -26.5t71.5 -70.5t26.5 -98q0 -16 -11 -27.5t-28 -11.5t-28 11.5t-11 27.5q0 32 -16.5 59t-44 42.5t-58.5 15.5t-58.5 -15.5t-44 -42t-16.5 -59.5q0 -32 16.5 -59t43.5 -42.5t59 -15.5q54 0 99 -26.5t71.5 -71
t26.5 -98.5q0 -45 -20 -86t-59 -70q39 -29 59 -69.5t20 -85.5q0 -54 -26.5 -98.5t-71.5 -71t-99 -26.5zM236 157q32 0 59 15.5t43.5 42t16.5 58.5q0 33 -16.5 59.5t-43.5 42.5t-59 16t-59 -16t-43.5 -42.5t-16.5 -59.5q0 -32 16.5 -58.5t43.5 -42t59 -15.5z" />
    <glyph glyph-name="dieresis" unicode="&#xa8;" horiz-adv-x="469" 
d="M140 622q-23 0 -39 16t-16 39q0 22 16 38.5t39 16.5t39 -16.5t16 -38.5q0 -23 -16 -39t-39 -16zM349 622q-23 0 -39 16t-16 39q0 22 16 38.5t39 16.5t39 -16.5t16 -38.5q0 -23 -16 -39t-39 -16z" />
    <glyph glyph-name="copyright" unicode="&#xa9;" horiz-adv-x="859" 
d="M441 142q-69 0 -124 33t-86.5 89.5t-31.5 128.5t30 128.5t82.5 89t120.5 32.5q111 0 180 -86q11 -13 8.5 -27t-17.5 -23q-11 -8 -24.5 -6t-23.5 14q-49 56 -123 56q-47 0 -82.5 -22.5t-55.5 -62.5t-20 -93t21.5 -93t59 -63t86.5 -23q67 0 108 37q12 10 25.5 11t23.5 -8
q13 -12 14 -26.5t-10 -24.5q-65 -61 -161 -61zM436 0q-82 0 -153 30t-124.5 83.5t-83.5 124.5t-30 154q0 80 30.5 150.5t84 124.5t124.5 84.5t152 30.5q80 0 151 -30.5t124.5 -84t84.5 -124.5t31 -151q0 -83 -30.5 -154t-84 -124.5t-124.5 -83.5t-152 -30zM435 67
q68 0 127 25.5t103.5 70.5t70 103.5t25.5 125.5t-25.5 125.5t-70.5 103.5t-104 70.5t-126 25.5q-66 0 -125 -25.5t-104 -70t-70.5 -103.5t-25.5 -126t25.5 -126t70 -104t103.5 -70t126 -25z" />
    <glyph glyph-name="ordfeminine" unicode="&#xaa;" horiz-adv-x="475" 
d="M236 398q-56 0 -100.5 26t-70 70t-25.5 100t25.5 100.5t70 70t100.5 25.5t100.5 -25.5t70 -70t25.5 -100.5l-37 -84q-20 -49 -61.5 -80.5t-97.5 -31.5zM236 473q52 0 87 34.5t35 86.5q0 53 -35 87.5t-87 34.5t-87 -34.5t-35 -87.5q0 -52 35 -86.5t87 -34.5zM396 396
q-18 0 -27.5 11t-8.5 28l8 159h64v-159q0 -17 -10.5 -28t-25.5 -11z" />
    <glyph glyph-name="guillemotleft" unicode="&#xab;" horiz-adv-x="469" 
d="M394 0q-12 0 -21 6t-15 18l-115 228q-5 10 -5 21q0 9 4 19l116 230q11 24 36 24q17 0 28 -11t11 -27q0 -9 -4 -17l-109 -218l109 -218q4 -7 4 -16q0 -17 -11 -28t-28 -11zM195 0q-12 0 -21 6t-15 18l-114 228q-3 6 -4.5 11t-1.5 10q0 9 5 19l115 230q12 24 36 24
q17 0 28 -11t11 -27q0 -10 -3 -17l-109 -218l109 -218q3 -6 3 -16q0 -17 -11.5 -28t-27.5 -11z" />
    <glyph glyph-name="logicalnot" unicode="&#xac;" horiz-adv-x="547" 
d="M468 313q-15 0 -26.5 11t-11.5 28v117h-352q-17 0 -28 11.5t-11 27.5q0 17 11 28t28 11h390q17 0 28 -11t11 -28v-156q0 -17 -11 -28t-28 -11z" />
    <glyph glyph-name="uni00AD" unicode="&#xad;" horiz-adv-x="391" 
d="M76 235q-16 0 -27 11t-11 27q0 17 11 28t27 11h235q17 0 28 -11t11 -28q0 -16 -11 -27t-28 -11h-235z" />
    <glyph glyph-name="registered" unicode="&#xae;" horiz-adv-x="859" 
d="M322 155q-15 0 -24.5 9.5t-9.5 23.5v424q0 15 10 24t25 9h113q48 0 85.5 -19.5t59 -53.5t21.5 -79q0 -44 -22.5 -78.5t-60.5 -54t-83 -19.5h-81v-153q0 -14 -9 -23.5t-24 -9.5zM578 155q-19 0 -29 16l-122 196l64 19l112 -180q12 -20 5 -35.5t-30 -15.5zM355 402h83
q43 0 70.5 23.5t27.5 67.5t-27.5 68t-70.5 24h-83v-183zM436 0q-82 0 -153 30t-124.5 83.5t-83.5 124.5t-30 154q0 80 30.5 150.5t84 124.5t124.5 84.5t152 30.5q80 0 151 -30.5t124.5 -84t84.5 -124.5t31 -151q0 -83 -30.5 -154t-84 -124.5t-124.5 -83.5t-152 -30zM435 67
q68 0 127 25.5t103.5 70.5t70 103.5t25.5 125.5t-25.5 125.5t-70.5 103.5t-104 70.5t-126 25.5q-66 0 -125 -25.5t-104 -70t-70.5 -103.5t-25.5 -126t25.5 -126t70 -104t103.5 -70t126 -25z" />
    <glyph glyph-name="macron" unicode="&#xaf;" horiz-adv-x="547" 
d="M144 638q-17 0 -28 9.5t-11 26.5t11 26.5t28 9.5h259q16 0 27.5 -9.5t11.5 -26.5t-11.5 -26.5t-27.5 -9.5h-259z" />
    <glyph glyph-name="degree" unicode="&#xb0;" horiz-adv-x="469" 
d="M234 391q-54 0 -98 26.5t-70.5 71t-26.5 98.5q0 53 26.5 97t70.5 71t98 27t98.5 -26.5t71 -71t26.5 -97.5q0 -54 -27 -98.5t-71 -71t-98 -26.5zM234 469q32 0 59 16t43 42.5t16 59.5q0 31 -16.5 58t-43 43t-58.5 16t-58.5 -16t-42.5 -43t-16 -58q0 -33 15.5 -59.5
t42.5 -42.5t59 -16z" />
    <glyph glyph-name="plusminus" unicode="&#xb1;" horiz-adv-x="547" 
d="M273 156q-17 0 -28 11t-11 28v157h-156q-17 0 -28 11t-11 28q0 16 11 27.5t28 11.5h156v157q0 16 11.5 27t27.5 11q17 0 28 -11t11 -27v-157h156q17 0 28 -11.5t11 -27.5q0 -17 -11 -28t-28 -11h-156v-157q0 -17 -11 -28t-28 -11zM78 0q-17 0 -28 11t-11 28q0 16 11 27.5
t28 11.5h391q16 0 27 -11.5t11 -27.5q0 -17 -11 -28t-27 -11h-391z" />
    <glyph glyph-name="uni00B2" unicode="&#xb2;" horiz-adv-x="365" 
d="M88 386q-17 0 -27 10.5t-10 26.5q0 8 2 14t7 12l159 172q12 12 17 24.5t5 25.5q0 25 -18 42t-45 17q-34 0 -54 -19.5t-20 -46.5q0 -16 -7 -26.5t-24 -10.5q-14 0 -22 11t-8 26q0 55 38 91.5t98 36.5q57 0 92.5 -35t35.5 -87q0 -32 -18 -55.5t-36 -42.5l-146 -155l-10 34
h186q15 0 26 -8t11 -24q0 -17 -10.5 -25t-26.5 -8h-195z" />
    <glyph glyph-name="uni00B3" unicode="&#xb3;" horiz-adv-x="366" 
d="M183 378q-60 0 -99 35t-39 88q0 16 9.5 26.5t25.5 10.5q15 0 22.5 -10.5t7.5 -26.5q0 -26 20 -43.5t52 -17.5q27 0 46.5 16t19.5 42q0 28 -16 46t-40 18q-19 0 -29.5 8.5t-10.5 22.5q0 33 35 33q25 0 38.5 12.5t13.5 38.5q0 22 -16 36.5t-44 14.5q-31 0 -48 -14t-21 -35
q-2 -12 -10 -21t-18 -9q-15 0 -24.5 9t-9.5 24q0 31 17.5 56t47 39.5t65.5 14.5q53 0 89 -31.5t36 -80.5q0 -27 -16.5 -51t-41.5 -35q32 -11 51 -36t19 -61q0 -35 -17.5 -61.5t-47 -42t-67.5 -15.5z" />
    <glyph glyph-name="acute" unicode="&#xb4;" horiz-adv-x="273" 
d="M85 592q-17 0 -28 11t-11 28q0 15 9 26l113 113q11 11 27 11q17 0 28 -11.5t11 -28.5q0 -16 -11 -26l-112 -113q-10 -10 -26 -10z" />
    <glyph glyph-name="uni00B5" unicode="&#xb5;" 
d="M336 -6q-69 0 -119 33.5t-76.5 91.5t-26.5 130h-34v260q0 17 10.5 27.5t27.5 10.5t28 -10.5t11 -27.5v-260q0 -53 23 -94t63 -64.5t93 -23.5q51 0 90 18.5t61.5 51.5t22.5 76l45 -2q-2 -63 -31.5 -112.5t-78.5 -77t-109 -27.5zM118 -234q-17 0 -27.5 10.5t-10.5 28.5v480
h77v-480q0 -18 -11 -28.5t-28 -10.5zM548 0q-17 0 -27.5 10.5t-10.5 28.5v470q0 17 10.5 27.5t27.5 10.5t28 -10.5t11 -27.5v-470q0 -18 -11 -28.5t-28 -10.5z" />
    <glyph glyph-name="paragraph" unicode="&#xb6;" horiz-adv-x="571" 
d="M279 0q-17 0 -28 11t-11 28v352q-57 1 -101 27.5t-69 70.5t-25 97q0 54 26 98.5t70 71t99 26.5h247q16 0 27.5 -11.5t11.5 -28.5q0 -14 -11.5 -25t-27.5 -12v-666q0 -17 -11 -28t-28 -11t-28 11t-11 28v665h-91v-665q0 -17 -11 -28t-28 -11z" />
    <glyph glyph-name="periodcentered" unicode="&#xb7;" horiz-adv-x="195" 
d="M96 313q-24 0 -41.5 16.5t-17.5 41.5t17 42t42 17q24 0 40.5 -17.5t16.5 -41.5t-16.5 -41t-40.5 -17z" />
    <glyph glyph-name="cedilla" unicode="&#xb8;" horiz-adv-x="313" 
d="M153 -233q-54 0 -88 22.5t-34 51.5q0 15 11 26.5t26 11.5q12 0 20 -6t15 -16q7 -11 19 -17.5t32 -6.5q22 0 37.5 10t15.5 28q0 19 -12 30t-40 18q-24 6 -34.5 17t0.5 38l16 41q10 30 44 30q19 0 28.5 -13.5t1.5 -31.5l-15 -36q52 -13 72.5 -36.5t20.5 -56.5
q0 -28 -18 -51.5t-48.5 -38t-69.5 -14.5z" />
    <glyph glyph-name="uni00B9" unicode="&#xb9;" horiz-adv-x="274" 
d="M176 386q-17 0 -25.5 10.5t-8.5 28.5v276l-62 -21q-20 -6 -36 -4t-22 17q-6 16 2 27.5t23 16.5l109 38q25 9 39.5 0.5t14.5 -34.5v-316q0 -18 -8 -28.5t-26 -10.5z" />
    <glyph glyph-name="ordmasculine" unicode="&#xba;" horiz-adv-x="472" 
d="M236 398q-56 0 -100.5 26t-70 70t-25.5 100t25.5 100.5t70 70t100.5 25.5t100.5 -25.5t70 -70t25.5 -100.5t-25.5 -100t-70 -70t-100.5 -26zM236 473q52 0 87 34.5t35 86.5q0 53 -35 87.5t-87 34.5t-87 -34.5t-35 -87.5q0 -52 35 -86.5t87 -34.5z" />
    <glyph glyph-name="guillemotright" unicode="&#xbb;" horiz-adv-x="469" 
d="M277 0q-17 0 -28 11t-11 28q0 9 3 16l109 218l-109 218l-2 8t-1 9q0 16 11 27t28 11q24 0 36 -24l115 -230q2 -5 3.5 -9.5t1.5 -9.5t-1.5 -10t-4.5 -11l-114 -228q-7 -12 -15.5 -18t-20.5 -6zM78 0q-16 0 -27 11t-11 28q0 9 3 16l108 218l-108 218q-1 4 -2.5 8t-1.5 9
q0 16 11.5 27t27.5 11q24 0 36 -24l115 -230q2 -5 3.5 -9.5t1.5 -9.5q0 -10 -6 -21l-114 -228q-6 -12 -15 -18t-21 -6z" />
    <glyph glyph-name="onequarter" unicode="&#xbc;" horiz-adv-x="764" 
d="M176 386q-17 0 -25.5 10.5t-8.5 28.5v276l-62 -21q-20 -6 -36 -4t-22 17q-6 16 2 27.5t23 16.5l109 38q25 9 39.5 0.5t14.5 -34.5v-316q0 -18 -8 -28.5t-26 -10.5zM139 0q-19 0 -27 16t3 33l469 719q7 10 15 14.5t17 4.5q20 0 28.5 -17t-5.5 -38l-469 -712
q-13 -20 -31 -20zM623 -4q-16 0 -24.5 8.5t-8.5 23.5v57h-160q-17 0 -27 9.5t-10 23.5q0 15 12 31l181 234q7 9 16.5 13.5t18.5 4.5q14 0 25 -9t11 -24v-223h35q14 0 22.5 -8t8.5 -22q0 -15 -8.5 -22.5t-22.5 -7.5h-35v-57q0 -15 -8.5 -23.5t-25.5 -8.5zM474 145h118v156z
" />
    <glyph glyph-name="onehalf" unicode="&#xbd;" horiz-adv-x="812" 
d="M176 386q-17 0 -25.5 10.5t-8.5 28.5v276l-62 -21q-20 -6 -36 -4t-22 17q-6 16 2 27.5t23 16.5l109 38q25 9 39.5 0.5t14.5 -34.5v-316q0 -18 -8 -28.5t-26 -10.5zM169 0q-19 0 -27 16t3 33l469 719q7 10 15 14.5t17 4.5q20 0 28.5 -17t-5.5 -38l-469 -712
q-13 -20 -31 -20zM546 0q-17 0 -27 10.5t-10 26.5q0 8 2 14t7 12l159 172q12 12 17 24.5t5 25.5q0 25 -18 42t-45 17q-34 0 -54 -19.5t-20 -46.5q0 -16 -7 -26.5t-24 -10.5q-14 0 -22 11t-8 26q0 55 38 91.5t98 36.5q57 0 92.5 -35t35.5 -87q0 -32 -18 -55.5t-36 -42.5
l-146 -155l-10 34h186q15 0 26 -8t11 -24q0 -17 -10.5 -25t-26.5 -8h-195z" />
    <glyph glyph-name="threequarters" unicode="&#xbe;" horiz-adv-x="837" 
d="M183 378q-60 0 -99 35t-39 88q0 16 9.5 26.5t25.5 10.5q15 0 22.5 -10.5t7.5 -26.5q0 -26 20 -43.5t52 -17.5q27 0 46.5 16t19.5 42q0 28 -16 46t-40 18q-19 0 -29.5 8.5t-10.5 22.5q0 33 35 33q25 0 38.5 12.5t13.5 38.5q0 22 -16 36.5t-44 14.5q-31 0 -48 -14t-21 -35
q-2 -12 -10 -21t-18 -9q-15 0 -24.5 9t-9.5 24q0 31 17.5 56t47 39.5t65.5 14.5q53 0 89 -31.5t36 -80.5q0 -27 -16.5 -51t-41.5 -35q32 -11 51 -36t19 -61q0 -35 -17.5 -61.5t-47 -42t-67.5 -15.5zM186 0q-19 0 -27 16t3 33l469 719q7 10 15 14.5t17 4.5q20 0 28.5 -17
t-5.5 -38l-469 -712q-13 -20 -31 -20zM691 -4q-16 0 -24.5 8.5t-8.5 23.5v57h-160q-17 0 -27 9.5t-10 23.5q0 15 12 31l181 234q7 9 16.5 13.5t18.5 4.5q14 0 25 -9t11 -24v-223h35q14 0 22.5 -8t8.5 -22q0 -15 -8.5 -22.5t-22.5 -7.5h-35v-57q0 -15 -8.5 -23.5t-25.5 -8.5z
M542 145h118v156z" />
    <glyph glyph-name="questiondown" unicode="&#xbf;" horiz-adv-x="547" 
d="M271 444q17 0 28 -11t11 -29q0 -40 -19.5 -86t-54.5 -79q-31 -29 -59 -56t-45.5 -60t-17.5 -83q0 -39 19 -71.5t53.5 -51.5t80.5 -19q50 0 86 20.5t55.5 56.5t19.5 83q0 17 10.5 27.5t27.5 10.5t28 -10.5t11 -27.5q0 -69 -30 -121.5t-83.5 -82.5t-124.5 -30
q-66 0 -118 28.5t-82 78t-30 113.5q0 56 20 95t52.5 71.5t71.5 68.5q31 28 41 63t10 62q0 18 11 29t28 11zM271 621q25 0 41.5 -17t16.5 -41q0 -25 -17 -42t-41 -17t-41.5 17t-17.5 42q0 24 17.5 41t41.5 17z" />
    <glyph glyph-name="Agrave" unicode="&#xc0;" horiz-adv-x="703" 
d="M57 0q-23 0 -33 19t-2 37l294 698q11 27 38 27q26 0 37 -27l295 -699q9 -19 -2.5 -37t-32.5 -18q-12 0 -21.5 6t-15.5 18l-275 667h31l-277 -667q-5 -12 -14.5 -18t-21.5 -6zM123 186l30 67h406l30 -67h-466zM351 870q-15 0 -26 11l-113 112q-10 12 -10 27q0 17 11 28.5
t27 11.5t28 -12l112 -113q10 -8 10 -25t-11 -28.5t-28 -11.5z" />
    <glyph glyph-name="Aacute" unicode="&#xc1;" horiz-adv-x="703" 
d="M57 0q-23 0 -33 19t-2 37l294 698q11 27 38 27q26 0 37 -27l295 -699q9 -19 -2.5 -37t-32.5 -18q-12 0 -21.5 6t-15.5 18l-275 667h31l-277 -667q-5 -12 -14.5 -18t-21.5 -6zM123 186l30 67h406l30 -67h-466zM345 864q-16 0 -27.5 11.5t-11.5 27.5t9 26l113 113
q11 11 27 11q17 0 28 -11.5t11 -28.5q0 -7 -2.5 -14t-8.5 -12l-112 -113q-10 -10 -26 -10z" />
    <glyph glyph-name="Acircumflex" unicode="&#xc2;" horiz-adv-x="703" 
d="M57 0q-23 0 -33 19t-2 37l294 698q11 27 38 27q26 0 37 -27l295 -699q9 -19 -2.5 -37t-32.5 -18q-12 0 -21.5 6t-15.5 18l-275 667h31l-277 -667q-5 -12 -14.5 -18t-21.5 -6zM123 186l30 67h406l30 -67h-466zM236 868q-17 0 -28.5 9.5t-11.5 25.5q0 21 19 34l118 78
q8 5 19 5q6 0 11 -1.5t9 -3.5l117 -78q19 -13 19 -34q0 -15 -11 -25t-28 -10q-7 0 -12.5 2t-11.5 6l-93 64l-93 -64q-11 -8 -23 -8z" />
    <glyph glyph-name="Atilde" unicode="&#xc3;" horiz-adv-x="703" 
d="M57 0q-23 0 -33 19t-2 37l294 698q11 27 38 27q26 0 37 -27l295 -699q9 -19 -2.5 -37t-32.5 -18q-12 0 -21.5 6t-15.5 18l-275 667h31l-277 -667q-5 -12 -14.5 -18t-21.5 -6zM123 186l30 67h406l30 -67h-466zM416 876q-25 0 -45 11.5t-33 25.5q-14 14 -23.5 20.5
t-21.5 6.5t-20.5 -10t-17.5 -27q-7 -13 -19.5 -18t-25.5 0q-14 5 -18.5 18t2.5 27q18 39 41.5 56.5t53.5 17.5q29 0 46.5 -12.5t32.5 -25.5q16 -14 25 -19t16 -5q14 0 25 24q7 14 20 20t25 2q16 -6 21.5 -19t-1.5 -27q-17 -36 -37.5 -51t-45.5 -15z" />
    <glyph glyph-name="Adieresis" unicode="&#xc4;" horiz-adv-x="703" 
d="M57 0q-23 0 -33 19t-2 37l294 698q11 27 38 27q26 0 37 -27l295 -699q9 -19 -2.5 -37t-32.5 -18q-12 0 -21.5 6t-15.5 18l-275 667h31l-277 -667q-5 -12 -14.5 -18t-21.5 -6zM123 186l30 67h406l30 -67h-466zM248 881q-24 0 -39.5 15.5t-15.5 39.5q0 22 15.5 38.5
t39.5 16.5q23 0 39 -16.5t16 -38.5q0 -24 -16 -39.5t-39 -15.5zM457 881q-24 0 -39.5 15.5t-15.5 39.5q0 22 15.5 38.5t39.5 16.5q23 0 39 -16.5t16 -38.5q0 -24 -16 -39.5t-39 -15.5z" />
    <glyph glyph-name="Aring" unicode="&#xc5;" horiz-adv-x="703" 
d="M57 0q-23 0 -33 19t-2 37l294 698q11 27 38 27q26 0 37 -27l295 -699q9 -19 -2.5 -37t-32.5 -18q-12 0 -21.5 6t-15.5 18l-275 667h31l-277 -667q-5 -12 -14.5 -18t-21.5 -6zM123 186l30 67h406l30 -67h-466zM352 827q-41 0 -69.5 28t-28.5 70t29 70t69 28q42 0 70 -28
t28 -70q0 -41 -27.5 -69.5t-70.5 -28.5zM352 872q23 0 38 15.5t15 37.5q0 23 -15 38t-38 15q-22 0 -37 -15t-15 -38q0 -22 15 -37.5t37 -15.5z" />
    <glyph glyph-name="AE" unicode="&#xc6;" horiz-adv-x="960" 
d="M59 0q-16 0 -26 9t-13 22t4 25l419 695q9 15 21.5 22.5t31.5 7.5h381q16 0 27 -10.5t11 -27.5q0 -15 -11 -26t-27 -11h-355v-276h238q16 0 27 -11t11 -27t-11 -27t-27 -11h-238v-279h355q16 0 27 -11t11 -26q0 -17 -11 -27.5t-27 -10.5h-394q-17 0 -28 11t-11 28v147
h-253l-96 -162q-12 -24 -36 -24zM232 253h212v399l23 -2z" />
    <glyph glyph-name="Ccedilla" unicode="&#xc7;" horiz-adv-x="771" 
d="M451 -10q-81 0 -151.5 31t-124 86.5t-83.5 128t-30 155.5q0 82 29.5 154.5t83 127.5t124 86.5t152.5 31.5q72 0 131 -21t114 -67q9 -7 10.5 -16.5t-2.5 -18t-12 -12.5q-2 -8 -10 -12t-18.5 -3t-20.5 9q-39 34 -85 50.5t-107 16.5q-65 0 -121.5 -26t-99.5 -71t-67.5 -104
t-24.5 -125q0 -68 24.5 -127t67.5 -104t99.5 -70.5t121.5 -25.5q55 0 104 18t93 52q12 10 25.5 8t23.5 -12t10 -26q0 -8 -2.5 -14.5t-8.5 -13.5q-51 -47 -114 -66.5t-131 -19.5zM438 -233q-54 0 -88 23t-34 51q0 15 11 26t26 11q11 0 19.5 -5.5t15.5 -15.5q8 -11 20 -17.5
t31 -6.5q23 0 38 10t15 28q0 19 -11.5 30t-40.5 18q-24 5 -34 16.5t0 38.5l16 41q5 14 15.5 22t28.5 8q19 0 28.5 -13.5t1.5 -31.5l-15 -36q52 -13 72.5 -36.5t20.5 -56.5q0 -28 -18 -51.5t-48.5 -38t-69.5 -14.5z" />
    <glyph glyph-name="Egrave" unicode="&#xc8;" horiz-adv-x="692" 
d="M139 0q-17 0 -28 11t-11 28v703q0 17 11 28t28 11h469q16 0 27.5 -10.5t11.5 -27.5q0 -15 -11.5 -26t-27.5 -11h-430v-276h313q17 0 28 -11t11 -27t-11 -27t-28 -11h-313v-279h430q16 0 27.5 -11t11.5 -26q0 -17 -11.5 -27.5t-27.5 -10.5h-469zM380 870q-15 0 -26 11
l-113 112q-10 12 -10 27q0 17 11 28.5t27 11.5t28 -12l112 -113q10 -8 10 -25t-11 -28.5t-28 -11.5z" />
    <glyph glyph-name="Eacute" unicode="&#xc9;" horiz-adv-x="692" 
d="M139 0q-17 0 -28 11t-11 28v703q0 17 11 28t28 11h469q16 0 27.5 -10.5t11.5 -27.5q0 -15 -11.5 -26t-27.5 -11h-430v-276h313q17 0 28 -11t11 -27t-11 -27t-28 -11h-313v-279h430q16 0 27.5 -11t11.5 -26q0 -17 -11.5 -27.5t-27.5 -10.5h-469zM373 864q-16 0 -27.5 11.5
t-11.5 27.5t9 26l113 113q11 11 27 11q17 0 28 -11.5t11 -28.5q0 -7 -2.5 -14t-8.5 -12l-112 -113q-10 -10 -26 -10z" />
    <glyph glyph-name="Ecircumflex" unicode="&#xca;" horiz-adv-x="692" 
d="M139 0q-17 0 -28 11t-11 28v703q0 17 11 28t28 11h469q16 0 27.5 -10.5t11.5 -27.5q0 -15 -11.5 -26t-27.5 -11h-430v-276h313q17 0 28 -11t11 -27t-11 -27t-28 -11h-313v-279h430q16 0 27.5 -11t11.5 -26q0 -17 -11.5 -27.5t-27.5 -10.5h-469zM265 868q-17 0 -28.5 9.5
t-11.5 25.5q0 21 19 34l118 78q8 5 19 5q6 0 11 -1.5t9 -3.5l117 -78q19 -13 19 -34q0 -15 -11 -25t-28 -10q-7 0 -12.5 2t-11.5 6l-93 64l-93 -64q-11 -8 -23 -8z" />
    <glyph glyph-name="Edieresis" unicode="&#xcb;" horiz-adv-x="692" 
d="M139 0q-17 0 -28 11t-11 28v703q0 17 11 28t28 11h469q16 0 27.5 -10.5t11.5 -27.5q0 -15 -11.5 -26t-27.5 -11h-430v-276h313q17 0 28 -11t11 -27t-11 -27t-28 -11h-313v-279h430q16 0 27.5 -11t11.5 -26q0 -17 -11.5 -27.5t-27.5 -10.5h-469zM276 881q-24 0 -39.5 15.5
t-15.5 39.5q0 22 15.5 38.5t39.5 16.5q23 0 39 -16.5t16 -38.5q0 -24 -16 -39.5t-39 -15.5zM485 881q-24 0 -39.5 15.5t-15.5 39.5q0 22 15.5 38.5t39.5 16.5q23 0 39 -16.5t16 -38.5q0 -24 -16 -39.5t-39 -15.5z" />
    <glyph glyph-name="Igrave" unicode="&#xcc;" horiz-adv-x="278" 
d="M139 0q-17 0 -28 11t-11 28v703q0 17 11 28t28 11t28 -11t11 -28v-703q0 -17 -11 -28t-28 -11zM138 870q-15 0 -26 11l-113 112q-10 12 -10 27q0 17 11 28.5t27 11.5t28 -12l112 -113q10 -8 10 -25t-11 -28.5t-28 -11.5z" />
    <glyph glyph-name="Iacute" unicode="&#xcd;" horiz-adv-x="278" 
d="M139 0q-17 0 -28 11t-11 28v703q0 17 11 28t28 11t28 -11t11 -28v-703q0 -17 -11 -28t-28 -11zM132 864q-16 0 -27.5 11.5t-11.5 27.5t9 26l113 113q11 11 27 11q17 0 28 -11.5t11 -28.5q0 -7 -2.5 -14t-8.5 -12l-112 -113q-10 -10 -26 -10z" />
    <glyph glyph-name="Icircumflex" unicode="&#xce;" horiz-adv-x="278" 
d="M139 0q-17 0 -28 11t-11 28v703q0 17 11 28t28 11t28 -11t11 -28v-703q0 -17 -11 -28t-28 -11zM23 868q-17 0 -28.5 9.5t-11.5 25.5q0 21 19 34l118 78q8 5 19 5q6 0 11 -1.5t9 -3.5l117 -78q19 -13 19 -34q0 -15 -11 -25t-28 -10q-7 0 -12.5 2t-11.5 6l-93 64l-93 -64
q-11 -8 -23 -8z" />
    <glyph glyph-name="Idieresis" unicode="&#xcf;" horiz-adv-x="278" 
d="M139 0q-17 0 -28 11t-11 28v703q0 17 11 28t28 11t28 -11t11 -28v-703q0 -17 -11 -28t-28 -11zM35 881q-24 0 -39.5 15.5t-15.5 39.5q0 22 15.5 38.5t39.5 16.5q23 0 39 -16.5t16 -38.5q0 -24 -16 -39.5t-39 -15.5zM244 881q-24 0 -39.5 15.5t-15.5 39.5q0 22 15.5 38.5
t39.5 16.5q23 0 39 -16.5t16 -38.5q0 -24 -16 -39.5t-39 -15.5z" />
    <glyph glyph-name="Eth" unicode="&#xd0;" horiz-adv-x="770" 
d="M36 357q-16 0 -26 9t-10 25t10 25t26 9h292q16 0 26.5 -9t10.5 -25t-10.5 -25t-26.5 -9h-292zM139 0q-17 0 -28 11t-11 28v703q0 17 11 28t28 11h180q86 0 157.5 -28.5t123.5 -81t80.5 -123.5t28.5 -157t-28.5 -157.5t-80.5 -124t-123.5 -81t-157.5 -28.5h-180zM178 70
h141q92 0 162.5 41.5t110.5 114t40 165.5t-40 165.5t-110.5 113.5t-162.5 41h-141v-641z" />
    <glyph glyph-name="Ntilde" unicode="&#xd1;" horiz-adv-x="825" 
d="M139 0q-17 0 -28 11t-11 28v703q0 17 11 28t28 11q18 0 30 -14l478 -628v603q0 17 11 28t28 11q16 0 27.5 -11t11.5 -28v-703q0 -17 -11.5 -28t-27.5 -11q-8 0 -16 3t-13 10l-479 628v-602q0 -17 -11.5 -28t-27.5 -11zM518 861q-32 0 -56 11.5t-41 21.5q-21 13 -34 18
t-26 5q-18 0 -34.5 -8.5t-31.5 -26.5q-9 -13 -23 -17t-27 3t-15.5 21.5t6.5 27.5q25 32 58 49.5t69 17.5q32 0 54.5 -11t38.5 -21q20 -12 32.5 -18t28.5 -6t28 5t21 15q11 11 22.5 15.5t24.5 -3.5q14 -7 17 -22t-7 -28q-40 -49 -105 -49z" />
    <glyph glyph-name="Ograve" unicode="&#xd2;" horiz-adv-x="921" 
d="M461 -10q-87 0 -160 30t-126.5 84t-83 127t-29.5 160q0 86 29.5 159t83 127t126.5 84t160 30q86 0 159 -30t127 -84t83.5 -127t29.5 -159q0 -87 -29.5 -160t-83.5 -127t-127 -84t-159 -30zM461 64q69 0 128 24.5t102.5 69t67.5 104t24 129.5q0 69 -24 128.5t-67.5 104
t-102.5 69t-128 24.5q-70 0 -129 -24.5t-102.5 -69t-67.5 -104t-24 -128.5q0 -70 24 -129.5t67.5 -104t102.5 -69t129 -24.5zM460 870q-15 0 -26 11l-113 112q-10 12 -10 27q0 17 11 28.5t27 11.5t28 -12l112 -113q10 -8 10 -25t-11 -28.5t-28 -11.5z" />
    <glyph glyph-name="Oacute" unicode="&#xd3;" horiz-adv-x="921" 
d="M461 -10q-87 0 -160 30t-126.5 84t-83 127t-29.5 160q0 86 29.5 159t83 127t126.5 84t160 30q86 0 159 -30t127 -84t83.5 -127t29.5 -159q0 -87 -29.5 -160t-83.5 -127t-127 -84t-159 -30zM461 64q69 0 128 24.5t102.5 69t67.5 104t24 129.5q0 69 -24 128.5t-67.5 104
t-102.5 69t-128 24.5q-70 0 -129 -24.5t-102.5 -69t-67.5 -104t-24 -128.5q0 -70 24 -129.5t67.5 -104t102.5 -69t129 -24.5zM454 864q-16 0 -27.5 11.5t-11.5 27.5t9 26l113 113q11 11 27 11q17 0 28 -11.5t11 -28.5q0 -7 -2.5 -14t-8.5 -12l-112 -113q-10 -10 -26 -10z
" />
    <glyph glyph-name="Ocircumflex" unicode="&#xd4;" horiz-adv-x="921" 
d="M461 -10q-87 0 -160 30t-126.5 84t-83 127t-29.5 160q0 86 29.5 159t83 127t126.5 84t160 30q86 0 159 -30t127 -84t83.5 -127t29.5 -159q0 -87 -29.5 -160t-83.5 -127t-127 -84t-159 -30zM461 64q69 0 128 24.5t102.5 69t67.5 104t24 129.5q0 69 -24 128.5t-67.5 104
t-102.5 69t-128 24.5q-70 0 -129 -24.5t-102.5 -69t-67.5 -104t-24 -128.5q0 -70 24 -129.5t67.5 -104t102.5 -69t129 -24.5zM345 868q-17 0 -28.5 9.5t-11.5 25.5q0 21 19 34l118 78q8 5 19 5q6 0 11 -1.5t9 -3.5l117 -78q19 -13 19 -34q0 -15 -11 -25t-28 -10
q-7 0 -12.5 2t-11.5 6l-93 64l-93 -64q-11 -8 -23 -8z" />
    <glyph glyph-name="Otilde" unicode="&#xd5;" horiz-adv-x="921" 
d="M461 -10q-87 0 -160 30t-126.5 84t-83 127t-29.5 160q0 86 29.5 159t83 127t126.5 84t160 30q86 0 159 -30t127 -84t83.5 -127t29.5 -159q0 -87 -29.5 -160t-83.5 -127t-127 -84t-159 -30zM461 64q69 0 128 24.5t102.5 69t67.5 104t24 129.5q0 69 -24 128.5t-67.5 104
t-102.5 69t-128 24.5q-70 0 -129 -24.5t-102.5 -69t-67.5 -104t-24 -128.5q0 -70 24 -129.5t67.5 -104t102.5 -69t129 -24.5zM566 861q-32 0 -56 11.5t-41 21.5q-21 13 -34 18t-26 5q-18 0 -34.5 -8.5t-31.5 -26.5q-9 -13 -23 -17t-27 3t-15.5 21.5t6.5 27.5q25 32 58 49.5
t69 17.5q32 0 54.5 -11t38.5 -21q20 -12 32.5 -18t28.5 -6t28 5t21 15q11 11 22.5 15.5t24.5 -3.5q14 -7 17 -22t-7 -28q-40 -49 -105 -49z" />
    <glyph glyph-name="Odieresis" unicode="&#xd6;" horiz-adv-x="921" 
d="M461 -10q-87 0 -160 30t-126.5 84t-83 127t-29.5 160q0 86 29.5 159t83 127t126.5 84t160 30q86 0 159 -30t127 -84t83.5 -127t29.5 -159q0 -87 -29.5 -160t-83.5 -127t-127 -84t-159 -30zM461 64q69 0 128 24.5t102.5 69t67.5 104t24 129.5q0 69 -24 128.5t-67.5 104
t-102.5 69t-128 24.5q-70 0 -129 -24.5t-102.5 -69t-67.5 -104t-24 -128.5q0 -70 24 -129.5t67.5 -104t102.5 -69t129 -24.5zM357 881q-24 0 -39.5 15.5t-15.5 39.5q0 22 15.5 38.5t39.5 16.5q23 0 39 -16.5t16 -38.5q0 -24 -16 -39.5t-39 -15.5zM566 881q-24 0 -39.5 15.5
t-15.5 39.5q0 22 15.5 38.5t39.5 16.5q23 0 39 -16.5t16 -38.5q0 -24 -16 -39.5t-39 -15.5z" />
    <glyph glyph-name="multiply" unicode="&#xd7;" horiz-adv-x="469" 
d="M78 156q-16 0 -27.5 11t-11.5 28t10 28l130 129l-130 129q-10 12 -10 26q0 17 11 28.5t28 11.5q16 0 28 -11l128 -129l129 129q11 11 28 11q16 0 27.5 -11t11.5 -28q0 -16 -11 -27l-129 -129l129 -129q11 -12 11 -28q0 -17 -11.5 -28t-27.5 -11t-27 10l-130 130
l-129 -130q-11 -10 -27 -10z" />
    <glyph glyph-name="Oslash" unicode="&#xd8;" horiz-adv-x="884" 
d="M89 0q-22 0 -29 19t6 32l93 93l32 24l504 504l28 21l81 80q8 8 21 8q19 0 29 -17t-6 -33l-81 -81l-26 -19l-509 -509l-28 -20l-94 -94q-8 -8 -21 -8zM461 -10q-87 0 -160 30t-126.5 84t-83 127t-29.5 160q0 86 29.5 159t83 127t126.5 84t160 30q86 0 159 -30t127 -84
t83.5 -127t29.5 -159q0 -87 -29.5 -160t-83.5 -127t-127 -84t-159 -30zM461 64q69 0 128 24.5t102.5 69t67.5 104t24 129.5q0 69 -24 128.5t-67.5 104t-102.5 69t-128 24.5q-70 0 -129 -24.5t-102.5 -69t-67.5 -104t-24 -128.5q0 -70 24 -129.5t67.5 -104t102.5 -69
t129 -24.5z" />
    <glyph glyph-name="Ugrave" unicode="&#xd9;" horiz-adv-x="819" 
d="M411 -16q-91 0 -161.5 35t-110 97t-39.5 142v484q0 17 11 28t28 11t28 -11t11 -28v-484q0 -59 29.5 -104t82.5 -70.5t121 -25.5q67 0 119 25.5t81.5 70.5t29.5 104v484q0 17 11 28t28 11q18 0 28.5 -11t10.5 -28v-484q0 -80 -39.5 -142t-109 -97t-159.5 -35zM409 870
q-15 0 -26 11l-113 112q-10 12 -10 27q0 17 11 28.5t27 11.5t28 -12l112 -113q10 -8 10 -25t-11 -28.5t-28 -11.5z" />
    <glyph glyph-name="Uacute" unicode="&#xda;" horiz-adv-x="819" 
d="M411 -16q-91 0 -161.5 35t-110 97t-39.5 142v484q0 17 11 28t28 11t28 -11t11 -28v-484q0 -59 29.5 -104t82.5 -70.5t121 -25.5q67 0 119 25.5t81.5 70.5t29.5 104v484q0 17 11 28t28 11q18 0 28.5 -11t10.5 -28v-484q0 -80 -39.5 -142t-109 -97t-159.5 -35zM403 864
q-16 0 -27.5 11.5t-11.5 27.5t9 26l113 113q11 11 27 11q17 0 28 -11.5t11 -28.5q0 -7 -2.5 -14t-8.5 -12l-112 -113q-10 -10 -26 -10z" />
    <glyph glyph-name="Ucircumflex" unicode="&#xdb;" horiz-adv-x="819" 
d="M411 -16q-91 0 -161.5 35t-110 97t-39.5 142v484q0 17 11 28t28 11t28 -11t11 -28v-484q0 -59 29.5 -104t82.5 -70.5t121 -25.5q67 0 119 25.5t81.5 70.5t29.5 104v484q0 17 11 28t28 11q18 0 28.5 -11t10.5 -28v-484q0 -80 -39.5 -142t-109 -97t-159.5 -35zM294 868
q-17 0 -28.5 9.5t-11.5 25.5q0 21 19 34l118 78q8 5 19 5q6 0 11 -1.5t9 -3.5l117 -78q19 -13 19 -34q0 -15 -11 -25t-28 -10q-7 0 -12.5 2t-11.5 6l-93 64l-93 -64q-11 -8 -23 -8z" />
    <glyph glyph-name="Udieresis" unicode="&#xdc;" horiz-adv-x="819" 
d="M411 -16q-91 0 -161.5 35t-110 97t-39.5 142v484q0 17 11 28t28 11t28 -11t11 -28v-484q0 -59 29.5 -104t82.5 -70.5t121 -25.5q67 0 119 25.5t81.5 70.5t29.5 104v484q0 17 11 28t28 11q18 0 28.5 -11t10.5 -28v-484q0 -80 -39.5 -142t-109 -97t-159.5 -35zM306 881
q-24 0 -39.5 15.5t-15.5 39.5q0 22 15.5 38.5t39.5 16.5q23 0 39 -16.5t16 -38.5q0 -24 -16 -39.5t-39 -15.5zM515 881q-24 0 -39.5 15.5t-15.5 39.5q0 22 15.5 38.5t39.5 16.5q23 0 39 -16.5t16 -38.5q0 -24 -16 -39.5t-39 -15.5z" />
    <glyph glyph-name="Yacute" unicode="&#xdd;" horiz-adv-x="648" 
d="M324 0q-16 0 -27.5 11.5t-11.5 27.5v250l-272 431q-10 15 -7.5 29t12.5 23t25 9q12 0 19.5 -5t13.5 -14l270 -435h-42l269 433q7 11 15.5 16t20.5 5q14 0 23.5 -9.5t11 -23.5t-7.5 -28l-273 -431v-250q0 -16 -11.5 -27.5t-27.5 -11.5zM317 864q-16 0 -27.5 11.5
t-11.5 27.5t9 26l113 113q11 11 27 11q17 0 28 -11.5t11 -28.5q0 -7 -2.5 -14t-8.5 -12l-112 -113q-10 -10 -26 -10z" />
    <glyph glyph-name="Thorn" unicode="&#xde;" horiz-adv-x="612" 
d="M139 0q-17 0 -28 11t-11 28v703q0 17 11 28t28 11t28 -11t11 -28v-98h161q74 0 131 -29t89 -81.5t32 -120.5q0 -67 -32 -118.5t-89 -80.5t-131 -29h-161v-146q0 -17 -11 -28t-28 -11zM178 253h161q51 0 91 21t62.5 57.5t22.5 81.5q0 46 -22.5 83t-62.5 58.5t-91 21.5
h-161v-323z" />
    <glyph glyph-name="germandbls" unicode="&#xdf;" horiz-adv-x="547" 
d="M90 0q-16 0 -27 11t-11 27v540q0 55 27 99.5t74 70.5t109 26q55 0 98 -22t68 -62t25 -92q0 -36 -13.5 -61.5t-31.5 -45t-31.5 -38.5t-13.5 -43q0 -22 15 -41t37.5 -39t45 -43t38 -52.5t15.5 -67.5q0 -48 -24.5 -86.5t-68.5 -61.5t-100 -23q-36 0 -70.5 12.5t-57 32
t-22.5 41.5q0 15 8.5 24.5t23.5 9.5q16 0 24.5 -7t18 -16.5t27.5 -16.5t52 -7q53 0 83 25t30 73q0 30 -15 54t-37 45l-44 42t-37 45t-15 55q0 33 14 54t31.5 39t31.5 39t14 54q0 53 -33 80.5t-88 27.5q-56 0 -93 -36.5t-37 -93.5v-534q0 -16 -11 -27t-29 -11z" />
    <glyph glyph-name="agrave" unicode="&#xe0;" 
d="M331 -5q-77 0 -138 36.5t-96.5 99.5t-35.5 142q0 80 36.5 143t99.5 99.5t142 36.5t141.5 -36.5t99 -99.5t37.5 -143l-31 -24q0 -72 -33.5 -129.5t-91 -91t-130.5 -33.5zM339 65q58 0 103.5 27t72 74.5t26.5 106.5q0 60 -26.5 107t-72 74.5t-103.5 27.5q-57 0 -103 -27.5
t-73 -74.5t-27 -107q0 -59 27 -106.5t73 -74.5t103 -27zM578 0q-17 0 -28 10.5t-11 27.5v171l19 79l59 -15v-235q0 -17 -11 -27.5t-28 -10.5zM338 636q-15 0 -26 11l-113 112q-10 12 -10 27q0 17 11 28.5t27 11.5t28 -12l112 -113q10 -8 10 -25t-11 -28.5t-28 -11.5z" />
    <glyph glyph-name="aacute" unicode="&#xe1;" 
d="M331 -5q-77 0 -138 36.5t-96.5 99.5t-35.5 142q0 80 36.5 143t99.5 99.5t142 36.5t141.5 -36.5t99 -99.5t37.5 -143l-31 -24q0 -72 -33.5 -129.5t-91 -91t-130.5 -33.5zM339 65q58 0 103.5 27t72 74.5t26.5 106.5q0 60 -26.5 107t-72 74.5t-103.5 27.5q-57 0 -103 -27.5
t-73 -74.5t-27 -107q0 -59 27 -106.5t73 -74.5t103 -27zM578 0q-17 0 -28 10.5t-11 27.5v171l19 79l59 -15v-235q0 -17 -11 -27.5t-28 -10.5zM332 630q-16 0 -27.5 11.5t-11.5 27.5t9 26l113 113q11 11 27 11q17 0 28 -11.5t11 -28.5q0 -7 -2.5 -14t-8.5 -12l-112 -113
q-10 -10 -26 -10z" />
    <glyph glyph-name="acircumflex" unicode="&#xe2;" 
d="M331 -5q-77 0 -138 36.5t-96.5 99.5t-35.5 142q0 80 36.5 143t99.5 99.5t142 36.5t141.5 -36.5t99 -99.5t37.5 -143l-31 -24q0 -72 -33.5 -129.5t-91 -91t-130.5 -33.5zM339 65q58 0 103.5 27t72 74.5t26.5 106.5q0 60 -26.5 107t-72 74.5t-103.5 27.5q-57 0 -103 -27.5
t-73 -74.5t-27 -107q0 -59 27 -106.5t73 -74.5t103 -27zM578 0q-17 0 -28 10.5t-11 27.5v171l19 79l59 -15v-235q0 -17 -11 -27.5t-28 -10.5zM223 634q-17 0 -28.5 9.5t-11.5 25.5q0 21 19 34l118 78q8 5 19 5q6 0 11 -1.5t9 -3.5l117 -78q19 -13 19 -34q0 -15 -11 -25
t-28 -10q-7 0 -12.5 2t-11.5 6l-93 64l-93 -64q-11 -8 -23 -8z" />
    <glyph glyph-name="atilde" unicode="&#xe3;" 
d="M331 -5q-77 0 -138 36.5t-96.5 99.5t-35.5 142q0 80 36.5 143t99.5 99.5t142 36.5t141.5 -36.5t99 -99.5t37.5 -143l-31 -24q0 -72 -33.5 -129.5t-91 -91t-130.5 -33.5zM339 65q58 0 103.5 27t72 74.5t26.5 106.5q0 60 -26.5 107t-72 74.5t-103.5 27.5q-57 0 -103 -27.5
t-73 -74.5t-27 -107q0 -59 27 -106.5t73 -74.5t103 -27zM578 0q-17 0 -28 10.5t-11 27.5v171l19 79l59 -15v-235q0 -17 -11 -27.5t-28 -10.5zM445 627q-32 0 -56 11.5t-41 21.5q-21 13 -34 18t-26 5q-18 0 -34.5 -8.5t-31.5 -26.5q-9 -13 -23 -17t-27 3t-15.5 21.5t6.5 27.5
q25 32 58 49.5t69 17.5q32 0 54.5 -11t38.5 -21q20 -12 32.5 -18t28.5 -6t28 5t21 15q11 11 22.5 15.5t24.5 -3.5q14 -7 17 -22t-7 -28q-40 -49 -105 -49z" />
    <glyph glyph-name="adieresis" unicode="&#xe4;" 
d="M331 -5q-77 0 -138 36.5t-96.5 99.5t-35.5 142q0 80 36.5 143t99.5 99.5t142 36.5t141.5 -36.5t99 -99.5t37.5 -143l-31 -24q0 -72 -33.5 -129.5t-91 -91t-130.5 -33.5zM339 65q58 0 103.5 27t72 74.5t26.5 106.5q0 60 -26.5 107t-72 74.5t-103.5 27.5q-57 0 -103 -27.5
t-73 -74.5t-27 -107q0 -59 27 -106.5t73 -74.5t103 -27zM578 0q-17 0 -28 10.5t-11 27.5v171l19 79l59 -15v-235q0 -17 -11 -27.5t-28 -10.5zM235 647q-24 0 -39.5 15.5t-15.5 39.5q0 22 15.5 38.5t39.5 16.5q23 0 39 -16.5t16 -38.5q0 -24 -16 -39.5t-39 -15.5zM444 647
q-24 0 -39.5 15.5t-15.5 39.5q0 22 15.5 38.5t39.5 16.5q23 0 39 -16.5t16 -38.5q0 -24 -16 -39.5t-39 -15.5z" />
    <glyph glyph-name="aring" unicode="&#xe5;" 
d="M331 -5q-77 0 -138 36.5t-96.5 99.5t-35.5 142q0 80 36.5 143t99.5 99.5t142 36.5t141.5 -36.5t99 -99.5t37.5 -143l-31 -24q0 -72 -33.5 -129.5t-91 -91t-130.5 -33.5zM339 65q58 0 103.5 27t72 74.5t26.5 106.5q0 60 -26.5 107t-72 74.5t-103.5 27.5q-57 0 -103 -27.5
t-73 -74.5t-27 -107q0 -59 27 -106.5t73 -74.5t103 -27zM578 0q-17 0 -28 10.5t-11 27.5v171l19 79l59 -15v-235q0 -17 -11 -27.5t-28 -10.5zM339 593q-41 0 -69.5 28t-28.5 70t29 70t69 28q42 0 70 -28t28 -70q0 -41 -27.5 -69.5t-70.5 -28.5zM339 638q23 0 38 15.5
t15 37.5q0 23 -15 38t-38 15q-22 0 -37 -15t-15 -38q0 -22 15 -37.5t37 -15.5z" />
    <glyph glyph-name="ae" unicode="&#xe6;" horiz-adv-x="1096" 
d="M820 -5q-78 0 -138 35.5t-94.5 98.5t-34.5 144q0 82 32.5 144.5t89 98.5t130.5 36q76 0 132.5 -34.5t87.5 -95.5t31 -139q0 -16 -10 -25.5t-26 -9.5h-425v64h433l-42 -31q0 58 -22 104t-62.5 72t-96.5 26q-57 0 -100 -27t-66.5 -74.5t-23.5 -108.5t26.5 -108t72.5 -74
t106 -27q41 0 75 12.5t56 31.5q11 9 25 10t24 -8q13 -12 13.5 -26t-11.5 -24q-33 -28 -84 -46.5t-98 -18.5zM331 -5q-77 0 -138 36.5t-96.5 99.5t-35.5 142q0 80 36.5 143t99.5 99.5t142 36.5t141.5 -36.5t99 -99.5t37.5 -143l-31 -24q0 -72 -33.5 -129.5t-91 -91
t-130.5 -33.5zM339 65q58 0 103.5 27t72 74.5t26.5 106.5q0 60 -26.5 107t-72 74.5t-103.5 27.5q-57 0 -103 -27.5t-73 -74.5t-27 -107q0 -59 27 -106.5t73 -74.5t103 -27zM578 0q-17 0 -28 10.5t-11 27.5v171l19 79l59 -15v-235q0 -17 -11 -27.5t-28 -10.5z" />
    <glyph glyph-name="ccedilla" unicode="&#xe7;" horiz-adv-x="596" 
d="M334 -5q-79 0 -140.5 36.5t-97 99.5t-35.5 142q0 80 34 143t93 99.5t136 36.5q61 0 112.5 -24t90.5 -72q11 -12 8 -25.5t-17 -23.5q-11 -8 -24.5 -5.5t-23.5 14.5q-58 66 -146 66q-56 0 -98.5 -27t-66 -74t-23.5 -108q0 -60 25 -107t70 -74t103 -27q39 0 71.5 10.5
t57.5 32.5q12 10 25 11t24 -8q12 -11 13.5 -25t-9.5 -24q-73 -67 -182 -67zM309 -233q-54 0 -88 23t-34 51q0 15 11 26t26 11q11 0 19.5 -5.5t15.5 -15.5q8 -11 20 -17.5t31 -6.5q23 0 38 10t15 28q0 19 -11.5 30t-40.5 18q-24 5 -34 16.5t0 38.5l16 41q5 14 15.5 22t28.5 8
q19 0 28.5 -13.5t1.5 -31.5l-15 -36q52 -13 72.5 -36.5t20.5 -56.5q0 -28 -18 -51.5t-48.5 -38t-69.5 -14.5z" />
    <glyph glyph-name="egrave" unicode="&#xe8;" horiz-adv-x="614" 
d="M338 -5q-81 0 -143.5 35.5t-98 98.5t-35.5 144q0 82 33.5 144.5t92.5 98.5t136 36q76 0 132.5 -34.5t87.5 -95.5t31 -139q0 -16 -10 -25.5t-26 -9.5h-425v64h433l-43 -31q1 58 -21 104t-62.5 72t-96.5 26q-57 0 -100 -27t-66.5 -74.5t-23.5 -108.5t26.5 -108t72.5 -74
t106 -27q36 0 72.5 12.5t58.5 31.5q11 9 25 9.5t24 -7.5q13 -12 13.5 -26t-11.5 -24q-33 -28 -84 -46.5t-98 -18.5zM317 636q-15 0 -26 11l-113 112q-10 12 -10 27q0 17 11 28.5t27 11.5t28 -12l112 -113q10 -8 10 -25t-11 -28.5t-28 -11.5z" />
    <glyph glyph-name="eacute" unicode="&#xe9;" horiz-adv-x="614" 
d="M338 -5q-81 0 -143.5 35.5t-98 98.5t-35.5 144q0 82 33.5 144.5t92.5 98.5t136 36q76 0 132.5 -34.5t87.5 -95.5t31 -139q0 -16 -10 -25.5t-26 -9.5h-425v64h433l-43 -31q1 58 -21 104t-62.5 72t-96.5 26q-57 0 -100 -27t-66.5 -74.5t-23.5 -108.5t26.5 -108t72.5 -74
t106 -27q36 0 72.5 12.5t58.5 31.5q11 9 25 9.5t24 -7.5q13 -12 13.5 -26t-11.5 -24q-33 -28 -84 -46.5t-98 -18.5zM311 630q-16 0 -27.5 11.5t-11.5 27.5t9 26l113 113q11 11 27 11q17 0 28 -11.5t11 -28.5q0 -7 -2.5 -14t-8.5 -12l-112 -113q-10 -10 -26 -10z" />
    <glyph glyph-name="ecircumflex" unicode="&#xea;" horiz-adv-x="614" 
d="M338 -5q-81 0 -143.5 35.5t-98 98.5t-35.5 144q0 82 33.5 144.5t92.5 98.5t136 36q76 0 132.5 -34.5t87.5 -95.5t31 -139q0 -16 -10 -25.5t-26 -9.5h-425v64h433l-43 -31q1 58 -21 104t-62.5 72t-96.5 26q-57 0 -100 -27t-66.5 -74.5t-23.5 -108.5t26.5 -108t72.5 -74
t106 -27q36 0 72.5 12.5t58.5 31.5q11 9 25 9.5t24 -7.5q13 -12 13.5 -26t-11.5 -24q-33 -28 -84 -46.5t-98 -18.5zM202 634q-17 0 -28.5 9.5t-11.5 25.5q0 21 19 34l118 78q8 5 19 5q6 0 11 -1.5t9 -3.5l117 -78q19 -13 19 -34q0 -15 -11 -25t-28 -10q-7 0 -12.5 2t-11.5 6
l-93 64l-93 -64q-11 -8 -23 -8z" />
    <glyph glyph-name="edieresis" unicode="&#xeb;" horiz-adv-x="614" 
d="M338 -5q-81 0 -143.5 35.5t-98 98.5t-35.5 144q0 82 33.5 144.5t92.5 98.5t136 36q76 0 132.5 -34.5t87.5 -95.5t31 -139q0 -16 -10 -25.5t-26 -9.5h-425v64h433l-43 -31q1 58 -21 104t-62.5 72t-96.5 26q-57 0 -100 -27t-66.5 -74.5t-23.5 -108.5t26.5 -108t72.5 -74
t106 -27q36 0 72.5 12.5t58.5 31.5q11 9 25 9.5t24 -7.5q13 -12 13.5 -26t-11.5 -24q-33 -28 -84 -46.5t-98 -18.5zM213 647q-24 0 -39.5 15.5t-15.5 39.5q0 22 15.5 38.5t39.5 16.5q23 0 39 -16.5t16 -38.5q0 -24 -16 -39.5t-39 -15.5zM422 647q-24 0 -39.5 15.5
t-15.5 39.5q0 22 15.5 38.5t39.5 16.5q23 0 39 -16.5t16 -38.5q0 -24 -16 -39.5t-39 -15.5z" />
    <glyph glyph-name="igrave" unicode="&#xec;" horiz-adv-x="289" 
d="M145 0q-18 0 -28.5 10.5t-10.5 28.5v469q0 18 10.5 28.5t28.5 10.5q17 0 27.5 -10.5t10.5 -28.5v-469q0 -18 -10.5 -28.5t-27.5 -10.5zM144 636q-15 0 -26 11l-113 112q-10 12 -10 27q0 17 11 28.5t27 11.5t28 -12l112 -113q10 -8 10 -25t-11 -28.5t-28 -11.5z" />
    <glyph glyph-name="iacute" unicode="&#xed;" horiz-adv-x="289" 
d="M145 0q-18 0 -28.5 10.5t-10.5 28.5v469q0 18 10.5 28.5t28.5 10.5q17 0 27.5 -10.5t10.5 -28.5v-469q0 -18 -10.5 -28.5t-27.5 -10.5zM137 630q-16 0 -27.5 11.5t-11.5 27.5t9 26l113 113q11 11 27 11q17 0 28 -11.5t11 -28.5q0 -7 -2.5 -14t-8.5 -12l-112 -113
q-10 -10 -26 -10z" />
    <glyph glyph-name="icircumflex" unicode="&#xee;" horiz-adv-x="289" 
d="M145 0q-18 0 -28.5 10.5t-10.5 28.5v469q0 18 10.5 28.5t28.5 10.5q17 0 27.5 -10.5t10.5 -28.5v-469q0 -18 -10.5 -28.5t-27.5 -10.5zM40.3018 634q-15.2998 0 -25.6504 9.5t-10.3506 25.5q0 21 17.1006 34l106.203 78q7.2002 5 17.1006 5q5.39941 0 9.90039 -1.5
q4.5 -1.5 8.09961 -3.5l105.303 -78q17.1006 -13 17.1006 -34q0 -15 -9.90039 -25t-25.2002 -10q-6.30078 0 -11.251 2t-10.3496 6l-83.7021 64l-83.7031 -64q-9.89941 -8 -20.7002 -8z" />
    <glyph glyph-name="idieresis" unicode="&#xef;" horiz-adv-x="289" 
d="M50 670q-23 0 -39.5 16t-16.5 40q0 22 16.5 38t39.5 16t39 -16t16 -38q0 -24 -16 -40t-39 -16zM239 670q-23 0 -39 16t-16 40q0 22 16 38t39 16t39 -16t16 -38q0 -24 -16 -40t-39 -16zM145 0q-18 0 -28.5 10.5t-10.5 28.5v469q0 18 10.5 28.5t28.5 10.5q17 0 27.5 -10.5
t10.5 -28.5v-469q0 -18 -10.5 -28.5t-27.5 -10.5z" />
    <glyph glyph-name="eth" unicode="&#xf0;" horiz-adv-x="667" 
d="M327 -5q-78 0 -138 33.5t-94 93t-34 136.5q0 76 33 135t91.5 92t133.5 33q70 0 123 -31t83.5 -85.5t30.5 -125.5h41q0 -82 -34.5 -145.5t-95.5 -99.5t-140 -36zM327 65q57 0 101 24.5t69 68t25 100.5q0 56 -25 99t-69 67t-101 24q-56 0 -99 -24t-67.5 -67t-24.5 -99
q0 -57 24.5 -100.5t67.5 -68t99 -24.5zM538 273v72q-1 83 -17.5 143t-53 103.5t-96 76.5t-146.5 62q-18 6 -27.5 17.5t-3.5 26.5q5 16 19 18.5t31 -2.5q98 -34 166 -74t109 -90.5t59.5 -117t18.5 -153.5v-82h-59zM255 610q-11 5 -14.5 14.5t3.5 21.5l90 177q6 12 16 15
t21 -3q12 -7 14.5 -17t-2.5 -20l-90 -177q-6 -11 -16.5 -14.5t-21.5 3.5z" />
    <glyph glyph-name="ntilde" unicode="&#xf1;" 
d="M559 0q-17 0 -28 11t-11 27v260q0 62 -23.5 102t-64 60t-91.5 20q-49 0 -88.5 -19t-62.5 -52t-23 -75h-55q2 63 34 112.5t85 78t118 28.5q71 0 127 -29.5t88.5 -86.5t32.5 -139v-260q0 -16 -11 -27t-27 -11zM129 0q-18 0 -28.5 10.5t-10.5 27.5v470q0 18 10.5 28.5
t28.5 10.5q17 0 27.5 -10.5t10.5 -28.5v-470q0 -17 -10.5 -27.5t-27.5 -10.5zM444 627q-32 0 -56 11.5t-41 21.5q-21 13 -34 18t-26 5q-18 0 -34.5 -8.5t-31.5 -26.5q-9 -13 -23 -17t-27 3t-15.5 21.5t6.5 27.5q25 32 58 49.5t69 17.5q32 0 54.5 -11t38.5 -21
q20 -12 32.5 -18t28.5 -6t28 5t21 15q11 11 22.5 15.5t24.5 -3.5q14 -7 17 -22t-7 -28q-40 -49 -105 -49z" />
    <glyph glyph-name="ograve" unicode="&#xf2;" 
d="M339 -5q-80 0 -143 36t-99 99t-36 143q0 81 36 144t99 99t143 36t142.5 -36t98.5 -99t37 -144q0 -80 -36.5 -143t-99 -99t-142.5 -36zM339 65q58 0 104 27t72 74t26 107t-26 107.5t-72 74.5t-104 27t-104 -27t-72.5 -74.5t-26.5 -107.5t26.5 -107t72.5 -74t104 -27z
M338 636q-15 0 -26 11l-113 112q-10 12 -10 27q0 17 11 28.5t27 11.5t28 -12l112 -113q10 -8 10 -25t-11 -28.5t-28 -11.5z" />
    <glyph glyph-name="oacute" unicode="&#xf3;" 
d="M339 -5q-80 0 -143 36t-99 99t-36 143q0 81 36 144t99 99t143 36t142.5 -36t98.5 -99t37 -144q0 -80 -36.5 -143t-99 -99t-142.5 -36zM339 65q58 0 104 27t72 74t26 107t-26 107.5t-72 74.5t-104 27t-104 -27t-72.5 -74.5t-26.5 -107.5t26.5 -107t72.5 -74t104 -27z
M332 630q-16 0 -27.5 11.5t-11.5 27.5t9 26l113 113q11 11 27 11q17 0 28 -11.5t11 -28.5q0 -7 -2.5 -14t-8.5 -12l-112 -113q-10 -10 -26 -10z" />
    <glyph glyph-name="ocircumflex" unicode="&#xf4;" 
d="M339 -5q-80 0 -143 36t-99 99t-36 143q0 81 36 144t99 99t143 36t142.5 -36t98.5 -99t37 -144q0 -80 -36.5 -143t-99 -99t-142.5 -36zM339 65q58 0 104 27t72 74t26 107t-26 107.5t-72 74.5t-104 27t-104 -27t-72.5 -74.5t-26.5 -107.5t26.5 -107t72.5 -74t104 -27z
M223 634q-17 0 -28.5 9.5t-11.5 25.5q0 21 19 34l118 78q8 5 19 5q6 0 11 -1.5t9 -3.5l117 -78q19 -13 19 -34q0 -15 -11 -25t-28 -10q-7 0 -12.5 2t-11.5 6l-93 64l-93 -64q-11 -8 -23 -8z" />
    <glyph glyph-name="otilde" unicode="&#xf5;" 
d="M339 -5q-80 0 -143 36t-99 99t-36 143q0 81 36 144t99 99t143 36t142.5 -36t98.5 -99t37 -144q0 -80 -36.5 -143t-99 -99t-142.5 -36zM339 65q58 0 104 27t72 74t26 107t-26 107.5t-72 74.5t-104 27t-104 -27t-72.5 -74.5t-26.5 -107.5t26.5 -107t72.5 -74t104 -27z
M445 627q-32 0 -56 11.5t-41 21.5q-21 13 -34 18t-26 5q-18 0 -34.5 -8.5t-31.5 -26.5q-9 -13 -23 -17t-27 3t-15.5 21.5t6.5 27.5q25 32 58 49.5t69 17.5q32 0 54.5 -11t38.5 -21q20 -12 32.5 -18t28.5 -6t28 5t21 15q11 11 22.5 15.5t24.5 -3.5q14 -7 17 -22t-7 -28
q-40 -49 -105 -49z" />
    <glyph glyph-name="odieresis" unicode="&#xf6;" 
d="M339 -5q-80 0 -143 36t-99 99t-36 143q0 81 36 144t99 99t143 36t142.5 -36t98.5 -99t37 -144q0 -80 -36.5 -143t-99 -99t-142.5 -36zM339 65q58 0 104 27t72 74t26 107t-26 107.5t-72 74.5t-104 27t-104 -27t-72.5 -74.5t-26.5 -107.5t26.5 -107t72.5 -74t104 -27z
M235 647q-24 0 -39.5 15.5t-15.5 39.5q0 22 15.5 38.5t39.5 16.5q23 0 39 -16.5t16 -38.5q0 -24 -16 -39.5t-39 -15.5zM444 647q-24 0 -39.5 15.5t-15.5 39.5q0 22 15.5 38.5t39.5 16.5q23 0 39 -16.5t16 -38.5q0 -24 -16 -39.5t-39 -15.5z" />
    <glyph glyph-name="divide" unicode="&#xf7;" horiz-adv-x="469" 
d="M78 313q-16 0 -27.5 11t-11.5 28q0 16 11.5 27t27.5 11h313q16 0 27.5 -11t11.5 -27q0 -17 -11.5 -28t-27.5 -11h-313zM234 156q-20 0 -34.5 14.5t-14.5 34.5t14.5 34.5t34.5 14.5q21 0 34.5 -14.5t13.5 -34.5t-13.5 -34.5t-34.5 -14.5zM234 450q-20 0 -34.5 14t-14.5 34
q0 21 14.5 35t34.5 14q21 0 34.5 -14t13.5 -35q0 -20 -13.5 -34t-34.5 -14z" />
    <glyph glyph-name="oslash" unicode="&#xf8;" horiz-adv-x="700" 
d="M92 -19q-20 0 -28.5 18.5t6.5 33.5l74 74l32 22l330 329l21 23l59 58q9 10 23 10q15 0 22.5 -9.5t7.5 -22t-8 -20.5l-64 -63l-20 -19l-331 -329l-25 -19l-77 -77q-9 -9 -22 -9zM356 -7q-80 0 -143 36t-99 99t-36 143q0 81 36 144t99 99t143 36t142.5 -36t98.5 -99
t37 -144q0 -80 -36.5 -143t-99 -99t-142.5 -36zM356 63q58 0 104 27t72 74t26 107t-26 107.5t-72 74.5t-104 27t-104 -27t-72.5 -74.5t-26.5 -107.5t26.5 -107t72.5 -74t104 -27z" />
    <glyph glyph-name="ugrave" unicode="&#xf9;" 
d="M328 -6q-71 0 -127 29.5t-88.5 86.5t-32.5 139v260q0 16 11 27t27 11q17 0 28 -11t11 -27v-260q0 -62 23.5 -102t64 -60t91.5 -20q49 0 88.5 19t62.5 52t23 75h55q-3 -63 -34.5 -112.5t-84.5 -78t-118 -28.5zM548 0q-17 0 -27.5 10.5t-10.5 28.5v470q0 17 10.5 27.5
t27.5 10.5t28 -10.5t11 -27.5v-470q0 -18 -11 -28.5t-28 -10.5zM338 636q-15 0 -26 11l-113 112q-10 12 -10 27q0 17 11 28.5t27 11.5t28 -12l112 -113q10 -8 10 -25t-11 -28.5t-28 -11.5z" />
    <glyph glyph-name="uacute" unicode="&#xfa;" 
d="M328 -6q-71 0 -127 29.5t-88.5 86.5t-32.5 139v260q0 16 11 27t27 11q17 0 28 -11t11 -27v-260q0 -62 23.5 -102t64 -60t91.5 -20q49 0 88.5 19t62.5 52t23 75h55q-3 -63 -34.5 -112.5t-84.5 -78t-118 -28.5zM548 0q-17 0 -27.5 10.5t-10.5 28.5v470q0 17 10.5 27.5
t27.5 10.5t28 -10.5t11 -27.5v-470q0 -18 -11 -28.5t-28 -10.5zM332 630q-16 0 -27.5 11.5t-11.5 27.5t9 26l113 113q11 11 27 11q17 0 28 -11.5t11 -28.5q0 -7 -2.5 -14t-8.5 -12l-112 -113q-10 -10 -26 -10z" />
    <glyph glyph-name="ucircumflex" unicode="&#xfb;" 
d="M328 -6q-71 0 -127 29.5t-88.5 86.5t-32.5 139v260q0 16 11 27t27 11q17 0 28 -11t11 -27v-260q0 -62 23.5 -102t64 -60t91.5 -20q49 0 88.5 19t62.5 52t23 75h55q-3 -63 -34.5 -112.5t-84.5 -78t-118 -28.5zM548 0q-17 0 -27.5 10.5t-10.5 28.5v470q0 17 10.5 27.5
t27.5 10.5t28 -10.5t11 -27.5v-470q0 -18 -11 -28.5t-28 -10.5zM223 634q-17 0 -28.5 9.5t-11.5 25.5q0 21 19 34l118 78q8 5 19 5q6 0 11 -1.5t9 -3.5l117 -78q19 -13 19 -34q0 -15 -11 -25t-28 -10q-7 0 -12.5 2t-11.5 6l-93 64l-93 -64q-11 -8 -23 -8z" />
    <glyph glyph-name="udieresis" unicode="&#xfc;" 
d="M328 -6q-71 0 -127 29.5t-88.5 86.5t-32.5 139v260q0 16 11 27t27 11q17 0 28 -11t11 -27v-260q0 -62 23.5 -102t64 -60t91.5 -20q49 0 88.5 19t62.5 52t23 75h55q-3 -63 -34.5 -112.5t-84.5 -78t-118 -28.5zM548 0q-17 0 -27.5 10.5t-10.5 28.5v470q0 17 10.5 27.5
t27.5 10.5t28 -10.5t11 -27.5v-470q0 -18 -11 -28.5t-28 -10.5zM234 647q-24 0 -39.5 15.5t-15.5 39.5q0 22 15.5 38.5t39.5 16.5q23 0 39 -16.5t16 -38.5q0 -24 -16 -39.5t-39 -15.5zM443 647q-24 0 -39.5 15.5t-15.5 39.5q0 22 15.5 38.5t39.5 16.5q23 0 39 -16.5
t16 -38.5q0 -24 -16 -39.5t-39 -15.5z" />
    <glyph glyph-name="yacute" unicode="&#xfd;" horiz-adv-x="548" 
d="M184 -238q-8 0 -18 4q-34 15 -19 48l323 712q15 32 48 18q34 -14 19 -47l-324 -712q-10 -23 -29 -23zM295 17q-15 -7 -28 -2.5t-21 19.5l-223 462q-7 15 -2 28t20 20t28 2.5t20 -19.5l219 -462q8 -15 5 -28t-18 -20zM273 630q-16 0 -27.5 11.5t-11.5 27.5t9 26l113 113
q11 11 27 11q17 0 28 -11.5t11 -28.5q0 -7 -2.5 -14t-8.5 -12l-112 -113q-10 -10 -26 -10z" />
    <glyph glyph-name="thorn" unicode="&#xfe;" horiz-adv-x="707" 
d="M129 -234q-18 0 -28.5 10.5t-10.5 28.5v937q0 18 10.5 28.5t28.5 10.5q17 0 27.5 -10.5t10.5 -28.5l-5 -427l-28 -17q0 65 21 113t56 79.5t78 46.5t87 15q78 0 139 -35.5t96 -98.5t35 -145q0 -81 -34.5 -144t-95.5 -98.5t-140 -35.5q-71 0 -125 32t-84 88v-310
q0 -18 -10.5 -28.5t-27.5 -10.5zM367 65q60 0 105.5 26.5t71.5 73.5t26 108t-26 108.5t-71.5 74t-105.5 26.5q-59 0 -104.5 -26.5t-71 -74t-25.5 -108.5t25.5 -108t71 -73.5t104.5 -26.5z" />
    <glyph glyph-name="ydieresis" unicode="&#xff;" horiz-adv-x="548" 
d="M184 -238q-8 0 -18 4q-34 15 -19 48l323 712q15 32 48 18q34 -14 19 -47l-324 -712q-10 -23 -29 -23zM295 17q-15 -7 -28 -2.5t-21 19.5l-223 462q-7 15 -2 28t20 20t28 2.5t20 -19.5l219 -462q8 -15 5 -28t-18 -20zM176 647q-24 0 -39.5 15.5t-15.5 39.5q0 22 15.5 38.5
t39.5 16.5q23 0 39 -16.5t16 -38.5q0 -24 -16 -39.5t-39 -15.5zM385 647q-24 0 -39.5 15.5t-15.5 39.5q0 22 15.5 38.5t39.5 16.5q23 0 39 -16.5t16 -38.5q0 -24 -16 -39.5t-39 -15.5z" />
    <glyph glyph-name="dotlessi" unicode="&#x131;" horiz-adv-x="289" 
d="M145 0q-18 0 -28.5 10.5t-10.5 28.5v469q0 18 10.5 28.5t28.5 10.5q17 0 27.5 -10.5t10.5 -28.5v-469q0 -18 -10.5 -28.5t-27.5 -10.5z" />
    <glyph glyph-name="OE" unicode="&#x152;" horiz-adv-x="1153" 
d="M461 -10q-87 0 -160 30t-126.5 84t-83 127t-29.5 160q0 86 29.5 159t83 127t126.5 84t160 30q53 0 102 -5t91 -5v-88q-39 12 -88 18t-105 6q-70 0 -129 -24.5t-102.5 -69t-67.5 -104t-24 -128.5q0 -70 24 -129.5t67.5 -104t102.5 -69t129 -24.5q114 0 193 24v-87
q-43 0 -91 -5.5t-102 -5.5zM636 0q-17 0 -28 11t-11 28v703q0 17 11 28t28 11h433q16 0 27.5 -10.5t11.5 -27.5q0 -15 -11.5 -26t-27.5 -11h-394v-276h277q17 0 28 -11t11 -27t-11 -27t-28 -11h-277v-279h394q16 0 27.5 -11t11.5 -26q0 -17 -11.5 -27.5t-27.5 -10.5h-433z
" />
    <glyph glyph-name="oe" unicode="&#x153;" horiz-adv-x="1094" 
d="M339 -5q-81 0 -144 35.5t-98.5 98.5t-35.5 144q0 82 35.5 145t98.5 98.5t144 35.5q80 0 140.5 -35.5t94.5 -98.5t34 -145q0 -81 -34 -144t-94.5 -98.5t-140.5 -35.5zM339 65q59 0 104.5 26.5t71.5 73.5t26 108t-26 108.5t-71.5 74t-104.5 26.5t-105 -26.5t-72 -74
t-26 -108.5t26 -108t72 -73.5t105 -26.5zM818 -5q-80 0 -140.5 35.5t-95 98.5t-34.5 144q0 82 32.5 144.5t90 98.5t132.5 36q76 0 132.5 -34.5t87.5 -95.5t31 -139q0 -16 -10 -25.5t-26 -9.5h-425v64h433l-42 -31q0 58 -22 104t-62.5 72t-96.5 26q-57 0 -100 -27
t-66.5 -74.5t-23.5 -108.5t26.5 -108t72.5 -74t106 -27q36 0 72.5 12.5t58.5 31.5q11 9 25 9.5t24 -7.5q13 -12 13.5 -26t-11.5 -24q-33 -28 -84 -46.5t-98 -18.5z" />
    <glyph glyph-name="uni0237" horiz-adv-x="285" 
d="M-55 -234q-17 0 -28 10.5t-11 28.5q0 17 11 28t28 11q46 0 81 20t55.5 55t20.5 81v508q0 18 10.5 28.5t27.5 10.5t28 -10.5t11 -28.5v-508q0 -68 -30 -121t-83 -83t-121 -30z" />
    <glyph glyph-name="uni02BB" unicode="&#x2bb;" horiz-adv-x="215" 
d="M154 815q12 0 20.5 -11t2.5 -25q-15 -35 -18 -59t-1 -41.5t6 -33.5t4 -36q0 -24 -15 -38.5t-37 -14.5q-25 0 -40 21.5t-15 58.5q0 23 9.5 53t23.5 59t30 48t30 19z" />
    <glyph glyph-name="uni02BC" unicode="&#x2bc;" horiz-adv-x="173" 
d="M-34 531q-12 0 -20.5 11t-2.5 25q15 35 18 59t1 41.5t-6 33.5t-4 36q0 24 15 38.5t37 14.5q25 0 40 -21.5t15 -58.5q0 -23 -9.5 -53t-23.5 -59t-30 -48t-30 -19z" />
    <glyph glyph-name="circumflex" unicode="&#x2c6;" horiz-adv-x="391" 
d="M77 610q-17 0 -28.5 10t-11.5 25q0 21 19 34l118 78q9 5 19 5q6 0 10.5 -1.5t9.5 -3.5l117 -78q19 -13 19 -34q0 -15 -11 -25t-28 -10q-13 0 -24 8l-93 64l-93 -64q-10 -8 -23 -8z" />
    <glyph glyph-name="ring" unicode="&#x2da;" horiz-adv-x="273" 
d="M135 593q-41 0 -69.5 28t-28.5 70t28.5 70t69.5 28q42 0 70 -28t28 -70q0 -41 -27.5 -69.5t-70.5 -28.5zM135 638q23 0 38 15.5t15 37.5t-15 37.5t-38 15.5q-22 0 -37 -15.5t-15 -37.5t15 -37.5t37 -15.5z" />
    <glyph glyph-name="tilde" unicode="&#x2dc;" horiz-adv-x="469" 
d="M328 627q-32 0 -56 11t-41 22q-21 13 -34.5 18t-25.5 5q-18 0 -34.5 -8.5t-31.5 -26.5q-9 -13 -23 -17t-27 3t-15.5 21.5t6.5 27.5q25 32 58 49.5t69 17.5q31 0 54 -11t39 -21q19 -12 32 -18t29 -6t28 5.5t21 14.5q11 11 22.5 15.5t24.5 -3.5q14 -7 17 -22t-7 -28
q-39 -49 -105 -49z" />
    <glyph glyph-name="gravecomb" horiz-adv-x="0" 
d="M192 636q-15 0 -26 11l-113 112q-10 12 -10 27q0 17 11 28.5t27 11.5t28 -12l112 -113q10 -8 10 -25t-11 -28.5t-28 -11.5z" />
    <glyph glyph-name="acutecomb" horiz-adv-x="0" 
d="M85 630q-16 0 -27.5 11.5t-11.5 27.5t9 26l113 113q11 11 27 11q17 0 28 -11.5t11 -28.5q0 -7 -2.5 -14t-8.5 -12l-112 -113q-10 -10 -26 -10z" />
    <glyph glyph-name="uni0302" horiz-adv-x="0" 
d="M77 634q-17 0 -28.5 9.5t-11.5 25.5q0 21 19 34l118 78q8 5 19 5q6 0 11 -1.5t9 -3.5l117 -78q19 -13 19 -34q0 -15 -11 -25t-28 -10q-7 0 -12.5 2t-11.5 6l-93 64l-93 -64q-11 -8 -23 -8z" />
    <glyph glyph-name="tildecomb" horiz-adv-x="0" 
d="M328 627q-32 0 -56 11.5t-41 21.5q-21 13 -34 18t-26 5q-18 0 -34.5 -8.5t-31.5 -26.5q-9 -13 -23 -17t-27 3t-15.5 21.5t6.5 27.5q25 32 58 49.5t69 17.5q32 0 54.5 -11t38.5 -21q20 -12 32.5 -18t28.5 -6t28 5t21 15q11 11 22.5 15.5t24.5 -3.5q14 -7 17 -22t-7 -28
q-40 -49 -105 -49z" />
    <glyph glyph-name="uni0307" horiz-adv-x="0" 
d="M148 651q-22 0 -38 16t-16 39q0 25 16.5 39.5t38.5 14.5q21 0 37.5 -14.5t16.5 -39.5q0 -23 -16 -39t-39 -16z" />
    <glyph glyph-name="uni0308" horiz-adv-x="0" 
d="M141 647q-24 0 -39.5 15.5t-15.5 39.5q0 22 15.5 38.5t39.5 16.5q23 0 39 -16.5t16 -38.5q0 -24 -16 -39.5t-39 -15.5zM350 647q-24 0 -39.5 15.5t-15.5 39.5q0 22 15.5 38.5t39.5 16.5q23 0 39 -16.5t16 -38.5q0 -24 -16 -39.5t-39 -15.5z" />
    <glyph glyph-name="uni030A" horiz-adv-x="0" 
d="M135 593q-41 0 -69.5 28t-28.5 70t29 70t69 28q42 0 70 -28t28 -70q0 -41 -27.5 -69.5t-70.5 -28.5zM135 638q23 0 38 15.5t15 37.5q0 23 -15 38t-38 15q-22 0 -37 -15t-15 -38q0 -22 15 -37.5t37 -15.5z" />
    <glyph glyph-name="uni0327" horiz-adv-x="0" 
d="M153 -233q-54 0 -88 23t-34 51q0 15 11 26t26 11q11 0 19.5 -5.5t15.5 -15.5q8 -11 20 -17.5t31 -6.5q23 0 38 10t15 28q0 19 -11.5 30t-40.5 18q-24 5 -34 16.5t0 38.5l16 41q5 14 15.5 22t28.5 8q19 0 28.5 -13.5t1.5 -31.5l-15 -36q52 -13 72.5 -36.5t20.5 -56.5
q0 -28 -18 -51.5t-48.5 -38t-69.5 -14.5z" />
    <glyph glyph-name="uni2010" unicode="&#x2010;" horiz-adv-x="391" 
d="M76 235q-16 0 -27 11t-11 27q0 17 11 28t27 11h235q17 0 28 -11t11 -28q0 -16 -11 -27t-28 -11h-235z" />
    <glyph glyph-name="endash" unicode="&#x2013;" horiz-adv-x="391" 
d="M-5 235q-17 0 -28 11t-11 27q0 17 11 28t28 11h399q16 0 27.5 -11t11.5 -28q0 -16 -11.5 -27t-27.5 -11h-399z" />
    <glyph glyph-name="emdash" unicode="&#x2014;" horiz-adv-x="938" 
d="M-9 235q-16 0 -27 11t-11 27q0 17 11 28t27 11h958q17 0 28 -11t11 -28q0 -16 -11 -27t-28 -11h-958z" />
    <glyph glyph-name="uni2015" unicode="&#x2015;" horiz-adv-x="703" 
d="M-7 235q-17 0 -28 11t-11 27q0 17 11 28t28 11h719q16 0 27 -11t11 -28q0 -16 -11 -27t-27 -11h-719z" />
    <glyph glyph-name="underscoredbl" unicode="&#x2017;" horiz-adv-x="464" 
d="M-2 -78q-17 0 -28 11.5t-11 27.5t11 27.5t28 11.5h479q16 0 27 -11.5t11 -27.5t-11 -27.5t-27 -11.5h-479zM-2 -209q-17 0 -28 11.5t-11 27.5t11 27.5t28 11.5h479q16 0 27 -11.5t11 -27.5t-11 -27.5t-27 -11.5h-479z" />
    <glyph glyph-name="quoteleft" unicode="&#x2018;" horiz-adv-x="215" 
d="M154 815q12 0 20.5 -11t2.5 -25q-15 -35 -18 -59t-1 -41.5t6 -33.5t4 -36q0 -24 -15 -38.5t-37 -14.5q-25 0 -40 21.5t-15 58.5q0 23 9.5 53t23.5 59t30 48t30 19z" />
    <glyph glyph-name="quoteright" unicode="&#x2019;" horiz-adv-x="167" 
d="M25 531q-12 0 -20.5 11t-2.5 25q15 35 18 59t1 41.5t-6 33.5t-4 36q0 24 15 38.5t37 14.5q25 0 40 -21.5t15 -58.5q0 -23 -9.5 -53t-23.5 -59t-30 -48t-30 -19z" />
    <glyph glyph-name="quotesinglbase" unicode="&#x201a;" horiz-adv-x="234" 
d="M79 -165q-12 0 -20.5 11t-2.5 25q15 35 18 59t1 41.5t-6 33.5t-4 36q0 24 15 38.5t37 14.5q25 0 40 -21.5t15 -58.5q0 -23 -9.5 -53t-23.5 -59t-30 -48t-30 -19z" />
    <glyph glyph-name="quotereversed" unicode="&#x201b;" horiz-adv-x="215" 
d="M154 535q-13 0 -29 19t-30.5 48t-23.5 59t-9 53q0 37 14.5 58.5t40.5 21.5q21 0 36 -14.5t15 -38.5q0 -20 -3.5 -36t-6 -33.5t1 -41.5t17.5 -59q6 -14 -2 -25t-21 -11z" />
    <glyph glyph-name="quotedblleft" unicode="&#x201c;" horiz-adv-x="281" 
d="M110 815q12 0 20.5 -11t2.5 -25q-15 -35 -18 -59t-1 -41.5t6 -33.5t4 -36q0 -24 -15 -38.5t-37 -14.5q-25 0 -40 21.5t-15 58.5q0 23 9.5 53t23.5 59t30 48t30 19zM256 815q12 0 20.5 -11t2.5 -25q-15 -35 -18 -59t-1 -41.5t6 -33.5t4 -36q0 -24 -15 -38.5t-37 -14.5
q-25 0 -40 21.5t-15 58.5q0 23 9.5 53t23.5 59t30 48t30 19z" />
    <glyph glyph-name="quotedblright" unicode="&#x201d;" horiz-adv-x="279" 
d="M206 556q-21 0 -36 14.5t-15 38.5q0 20 3.5 36t6 33.5t-1 41.5t-17.5 59q-6 14 2 25t21 11q14 0 30 -19t30 -48t23 -59t9 -53q0 -37 -14.5 -58.5t-40.5 -21.5zM62 556q-21 0 -36 14.5t-15 38.5q0 20 3.5 36t6 33.5t-1 41.5t-17.5 59q-6 14 2 25t21 11q14 0 29.5 -19
t30 -48t23.5 -59t9 -53q0 -37 -14.5 -58.5t-40.5 -21.5z" />
    <glyph glyph-name="quotedblbase" unicode="&#x201e;" horiz-adv-x="281" 
d="M56 -165q-12 0 -20.5 11t-2.5 25q15 35 18 59t1 41.5t-6 33.5t-4 36q0 24 15 38.5t37 14.5q25 0 40 -21.5t15 -58.5q0 -23 -9.5 -53t-23.5 -59t-30 -48t-30 -19zM188 -165q-12 0 -20.5 11t-2.5 25q15 35 18 59t1 41.5t-6 33.5t-4 36q0 24 15 38.5t37 14.5q25 0 40 -21.5
t15 -58.5q0 -23 -9.5 -53t-23.5 -59t-30 -48t-30 -19z" />
    <glyph glyph-name="dagger" unicode="&#x2020;" horiz-adv-x="547" 
d="M273 -234q-16 0 -27.5 11t-11.5 27v665h-156q-17 0 -28 11.5t-11 27.5q0 17 11 28t28 11h156v200q0 17 11.5 28t27.5 11q17 0 28 -11t11 -28v-200h156q17 0 28 -11t11 -28q0 -16 -11 -27.5t-28 -11.5h-156v-665q0 -16 -11.5 -27t-27.5 -11z" />
    <glyph glyph-name="daggerdbl" unicode="&#x2021;" horiz-adv-x="547" 
d="M273 -234q-16 0 -27.5 11t-11.5 27v196h-156q-17 0 -28 11t-11 28q0 16 11 27.5t28 11.5h156v391h-156q-17 0 -28 11.5t-11 27.5q0 17 11 28t28 11h156v200q0 17 11.5 28t27.5 11q17 0 28 -11t11 -28v-200h156q17 0 28 -11t11 -28q0 -16 -11 -27.5t-28 -11.5h-156v-391
h156q17 0 28 -11.5t11 -27.5q0 -17 -11 -28t-28 -11h-156v-196q0 -16 -11.5 -27t-27.5 -11z" />
    <glyph glyph-name="bullet" unicode="&#x2022;" horiz-adv-x="391" 
d="M195 274q-33 0 -59.5 16t-42 42.5t-15.5 58.5t16 58.5t43 42.5t58 16t58 -16.5t43 -43t16 -57.5q0 -32 -15.5 -58.5t-42 -42.5t-59.5 -16z" />
    <glyph glyph-name="ellipsis" unicode="&#x2026;" horiz-adv-x="703" 
d="M97 0q-24 0 -41 17t-17 41q0 25 17 42t41 17q25 0 42 -17.5t17 -41.5t-17 -41t-42 -17zM330 0q-24 0 -41 17t-17 41q0 25 17 42t41 17t41.5 -17.5t17.5 -41.5t-17 -41t-42 -17zM563 0q-25 0 -41.5 17t-16.5 41t16.5 41.5t41.5 17.5q24 0 41 -17t17 -42q0 -24 -17 -41
t-41 -17z" />
    <glyph glyph-name="perthousand" unicode="&#x2030;" horiz-adv-x="1307" 
d="M159 0q-16 0 -27 11t-11 28q0 15 9 26l549 701q7 7 14.5 11.5t16.5 4.5q17 0 28 -11.5t11 -28.5q0 -13 -7 -23l-553 -706q-13 -13 -30 -13zM232 391q-54 0 -98.5 26.5t-71 71t-26.5 97.5t26.5 97.5t71 71.5t98.5 27q53 0 97.5 -27t71 -71.5t26.5 -97.5t-26.5 -97.5
t-71 -71t-97.5 -26.5zM232 467q32 0 59 16.5t43.5 43.5t16.5 59q0 33 -16.5 60t-44 43.5t-58.5 16.5q-32 0 -59.5 -16.5t-44 -43.5t-16.5 -60q0 -32 16.5 -59t43.5 -43.5t60 -16.5zM637 0q-53 0 -97.5 26.5t-71 70.5t-26.5 98q0 53 26.5 97.5t70.5 71t98 26.5t98.5 -26
t71 -70.5t26.5 -98.5t-26.5 -98t-71 -70.5t-98.5 -26.5zM637 76q33 0 60 16.5t43.5 43.5t16.5 59t-16.5 59t-44 43.5t-59.5 16.5t-59.5 -16t-43.5 -43.5t-16 -59.5q0 -33 16 -60t43.5 -43t59.5 -16zM1076 0q-53 0 -97.5 26.5t-71 71t-26.5 97.5q0 54 26.5 98t71 70.5
t97.5 26.5q54 0 98.5 -26t71 -70.5t26.5 -98.5t-26.5 -98t-71 -70.5t-98.5 -26.5zM1076 76q33 0 60 16.5t43.5 43.5t16.5 59t-16.5 59t-43.5 43.5t-60 16.5q-32 0 -59.5 -16t-43.5 -43t-16 -60q0 -32 16 -59.5t43.5 -43.5t59.5 -16z" />
    <glyph glyph-name="minute" unicode="&#x2032;" horiz-adv-x="195" 
d="M65 580q-10 0 -19 7.5t-9 21.5q0 7 2 12l42 136q4 11 14.5 17.5t21.5 6.5q18 0 29 -12t11 -27q0 -7 -3 -14l-62 -129q-8 -19 -27 -19z" />
    <glyph glyph-name="second" unicode="&#x2033;" horiz-adv-x="352" 
d="M218 580q-10 0 -19 7.5t-9 21.5q0 3 0.5 6t1.5 6l44 136q3 11 13 17.5t22 6.5q17 0 28 -12t11 -27q0 -3 -0.5 -6.5t-2.5 -7.5l-61 -129q-9 -19 -28 -19zM67 580q-10 0 -19 7.5t-9 21.5q0 7 2 12l42 136q4 11 14.5 17.5t21.5 6.5q18 0 29 -12t11 -27q0 -7 -3 -14l-61 -129
q-10 -19 -28 -19z" />
    <glyph glyph-name="guilsinglleft" unicode="&#x2039;" horiz-adv-x="273" 
d="M195 0q-12 0 -21 6t-15 18l-114 228q-3 6 -4.5 11t-1.5 10q0 9 5 19l115 230q12 24 36 24q17 0 28 -11t11 -27q0 -10 -3 -17l-109 -218l109 -218q3 -6 3 -16q0 -17 -11.5 -28t-27.5 -11z" />
    <glyph glyph-name="guilsinglright" unicode="&#x203a;" horiz-adv-x="273" 
d="M78 0q-16 0 -27 11t-11 28q0 9 3 16l108 218l-108 218q-1 4 -2.5 8t-1.5 9q0 16 11.5 27t27.5 11q24 0 36 -24l115 -230q2 -5 3.5 -9.5t1.5 -9.5q0 -10 -6 -21l-114 -228q-6 -12 -15 -18t-21 -6z" />
    <glyph glyph-name="exclamdbl" unicode="&#x203c;" horiz-adv-x="391" 
d="M108 177q-16 0 -27.5 11.5t-11.5 27.5v526q0 17 11.5 28.5t27.5 11.5q17 0 28 -11.5t11 -28.5v-526q0 -16 -12 -27.5t-27 -11.5zM108 0q-24 0 -41 17t-17 41q0 25 17 42t41 17t41 -17.5t17 -41.5t-17 -41t-41 -17zM303 177q-16 0 -27.5 11.5t-11.5 27.5v526
q0 17 11.5 28.5t27.5 11.5q17 0 28 -11.5t11 -28.5v-526q0 -16 -12 -27.5t-27 -11.5zM303 0q-24 0 -41 17t-17 41q0 25 17 42t41 17t41 -17.5t17 -41.5t-17 -41t-41 -17z" />
    <glyph glyph-name="uni203E" unicode="&#x203e;" horiz-adv-x="469" 
d="M0 860q-17 0 -28 11.5t-11 27.5t11 27.5t28 11.5h479q16 0 27 -11.5t11 -27.5t-11 -27.5t-27 -11.5h-479z" />
    <glyph glyph-name="fraction" unicode="&#x2044;" horiz-adv-x="313" 
d="M-80 0q-19 0 -27 16t3 33l469 719q7 10 15 14.5t17 4.5q20 0 28.5 -17t-5.5 -38l-469 -712q-13 -20 -31 -20z" />
    <glyph glyph-name="uni2052" unicode="&#x2052;" horiz-adv-x="775" 
d="M159 0q-16 0 -27 11t-11 28q0 15 9 26l549 701q7 7 14.5 11.5t16.5 4.5q17 0 28 -11.5t11 -28.5q0 -13 -7 -23l-553 -706q-13 -13 -30 -13zM633 0q-40 0 -68.5 28.5t-28.5 68.5q0 41 28.5 69t68.5 28q41 0 69.5 -28.5t28.5 -68.5t-28.5 -68.5t-69.5 -28.5zM227 586
q-41 0 -69.5 28.5t-28.5 68.5t28.5 69t69.5 29q39 0 68 -29t29 -69t-28.5 -68.5t-68.5 -28.5z" />
    <glyph glyph-name="uni2074" unicode="&#x2074;" horiz-adv-x="394" 
d="M268 382q-16 0 -24.5 8.5t-8.5 23.5v57h-160q-17 0 -27 9.5t-10 23.5q0 15 12 31l181 234q7 9 16.5 13.5t18.5 4.5q14 0 25 -9t11 -24v-223h35q14 0 22.5 -8t8.5 -22q0 -15 -8.5 -22.5t-22.5 -7.5h-35v-57q0 -15 -8.5 -23.5t-25.5 -8.5zM119 531h118v156z" />
    <glyph glyph-name="Euro" unicode="&#x20ac;" horiz-adv-x="825" 
d="M521 -10q-81 0 -151.5 31t-124 86.5t-83.5 128t-30 155.5q0 82 29.5 154.5t83 127.5t124 86.5t152.5 31.5q72 0 131 -21t114 -67q9 -7 10.5 -16.5t-2.5 -18t-12 -12.5q-2 -8 -10 -12t-18.5 -3t-20.5 9q-39 34 -85 50.5t-107 16.5q-65 0 -121.5 -26t-99.5 -71t-67.5 -104
t-24.5 -125q0 -68 24.5 -127t67.5 -104t99.5 -70.5t121.5 -25.5q55 0 104 18t93 52q12 10 25.5 8t23.5 -12t10 -26q0 -8 -2.5 -14.5t-8.5 -13.5q-51 -47 -114 -66.5t-131 -19.5zM61 279q-16 0 -26 9.5t-10 25.5q0 13 10 22.5t26 9.5h489q15 0 25 -9.5t10 -22.5
q0 -16 -10 -25.5t-25 -9.5h-489zM61 447q-16 0 -26 9.5t-10 24.5q0 14 10 23.5t26 9.5h559q15 0 25 -9.5t10 -23.5q0 -15 -10 -24.5t-25 -9.5h-559z" />
    <glyph glyph-name="trademark" unicode="&#x2122;" horiz-adv-x="758" 
d="M379 464q-12 0 -20 7.5t-8 18.5v271q0 13 11.5 20t25 5.5t20.5 -14.5l140 -243h-29l137 243q6 12 20 13.5t25.5 -5t11.5 -19.5v-271q0 -11 -8.5 -18.5t-19.5 -7.5q-12 0 -20 7.5t-8 18.5v221l19 1l-120 -213q-8 -15 -25 -14t-25 16l-117 207l19 2v-220q0 -11 -8.5 -18.5
t-20.5 -7.5zM159 464q-12 0 -20 7.5t-8 18.5v296h56v-296q0 -11 -8 -18.5t-20 -7.5zM38 738q-11 0 -18.5 7t-7.5 17t7.5 17t18.5 7h241q12 0 19.5 -7t7.5 -17t-7.5 -17t-19.5 -7h-241z" />
    <glyph glyph-name="oneeighth" horiz-adv-x="789" 
d="M176 386q-17 0 -25.5 10.5t-8.5 28.5v276l-62 -21q-20 -6 -36 -4t-22 17q-6 16 2 27.5t23 16.5l109 38q25 9 39.5 0.5t14.5 -34.5v-316q0 -18 -8 -28.5t-26 -10.5zM140 0q-19 0 -27 16t3 33l469 719q7 10 15 14.5t17 4.5q20 0 28.5 -17t-5.5 -38l-469 -712
q-13 -20 -31 -20zM601 -11q-40 0 -72.5 15t-52 42.5t-19.5 62.5q0 44 25 70.5t58 37.5q-24 11 -43 29t-19 58q0 42 36 70.5t87 28.5t86.5 -28.5t35.5 -70.5q0 -40 -19 -58t-44 -29q33 -11 58.5 -38t25.5 -70q0 -35 -19.5 -62.5t-51.5 -42.5t-72 -15zM601 49q32 0 53.5 18.5
t21.5 47.5q0 27 -21.5 46t-53.5 20q-32 0 -54 -19t-22 -47q1 -29 22.5 -47.5t53.5 -18.5zM601 246q25 0 41.5 14.5t16.5 36.5q0 20 -16.5 33.5t-41.5 13.5t-42 -13.5t-17 -33.5q0 -22 17 -36.5t42 -14.5z" />
    <glyph glyph-name="threeeighths" horiz-adv-x="823" 
d="M183 378q-60 0 -99 35t-39 88q0 16 9.5 26.5t25.5 10.5q15 0 22.5 -10.5t7.5 -26.5q0 -26 20 -43.5t52 -17.5q27 0 46.5 16t19.5 42q0 28 -16 46t-40 18q-19 0 -29.5 8.5t-10.5 22.5q0 33 35 33q25 0 38.5 12.5t13.5 38.5q0 22 -16 36.5t-44 14.5q-31 0 -48 -14t-21 -35
q-2 -12 -10 -21t-18 -9q-15 0 -24.5 9t-9.5 24q0 31 17.5 56t47 39.5t65.5 14.5q53 0 89 -31.5t36 -80.5q0 -27 -16.5 -51t-41.5 -35q32 -11 51 -36t19 -61q0 -35 -17.5 -61.5t-47 -42t-67.5 -15.5zM173 0q-19 0 -27 16t3 33l469 719q7 10 15 14.5t17 4.5q20 0 28.5 -17
t-5.5 -38l-469 -712q-13 -20 -31 -20zM635 -11q-40 0 -72.5 15t-52 42.5t-19.5 62.5q0 44 25 70.5t58 37.5q-24 11 -43 29t-19 58q0 42 36 70.5t87 28.5t86.5 -28.5t35.5 -70.5q0 -40 -19 -58t-44 -29q33 -11 58.5 -38t25.5 -70q0 -35 -19.5 -62.5t-51.5 -42.5t-72 -15z
M635 49q32 0 53.5 18.5t21.5 47.5q0 27 -21.5 46t-53.5 20q-32 0 -54 -19t-22 -47q1 -29 22.5 -47.5t53.5 -18.5zM635 246q25 0 41.5 14.5t16.5 36.5q0 20 -16.5 33.5t-41.5 13.5t-42 -13.5t-17 -33.5q0 -22 17 -36.5t42 -14.5z" />
    <glyph glyph-name="fiveeighths" horiz-adv-x="810" 
d="M176 382q-37 0 -67 16t-47 43.5t-17 62.5q0 15 9.5 24t21.5 9t21 -9t9 -24q0 -26 20 -44t51 -18q30 0 50 20t20 50q0 38 -22.5 56.5t-57.5 18.5h-75q-10 0 -16.5 6.5t-6.5 16.5v148q0 10 6.5 16.5t16.5 6.5h174q12 0 20 -8t8 -21t-8 -22t-20 -9h-134v-77h45
q47 0 76.5 -18t44 -47.5t14.5 -64.5q0 -58 -39 -95t-97 -37zM142 0q-19 0 -27 16t3 33l469 719q7 10 15 14.5t17 4.5q20 0 28.5 -17t-5.5 -38l-469 -712q-13 -20 -31 -20zM587 -11q-40 0 -72.5 15t-52 42.5t-19.5 62.5q0 44 25 70.5t58 37.5q-24 11 -43 29t-19 58
q0 42 36 70.5t87 28.5t86.5 -28.5t35.5 -70.5q0 -40 -19 -58t-44 -29q33 -11 58.5 -38t25.5 -70q0 -35 -19.5 -62.5t-51.5 -42.5t-72 -15zM587 49q32 0 53.5 18.5t21.5 47.5q0 27 -21.5 46t-53.5 20q-32 0 -54 -19t-22 -47q1 -29 22.5 -47.5t53.5 -18.5zM587 246
q25 0 41.5 14.5t16.5 36.5q0 20 -16.5 33.5t-41.5 13.5t-42 -13.5t-17 -33.5q0 -22 17 -36.5t42 -14.5z" />
    <glyph glyph-name="seveneighths" horiz-adv-x="763" 
d="M116 379q-19 0 -26.5 15.5t0.5 33.5l150 338l20 -46h-203q-14 0 -23.5 9t-9.5 21q0 13 9.5 22t23.5 9h202q21 0 30 -17.5t0 -38.5l-138 -326q-5 -11 -15.5 -15.5t-19.5 -4.5zM129 0q-19 0 -27 16t3 33l469 719q7 10 15 14.5t17 4.5q20 0 28.5 -17t-5.5 -38l-469 -712
q-13 -20 -31 -20zM575 -11q-40 0 -72.5 15t-52 42.5t-19.5 62.5q0 44 25 70.5t58 37.5q-24 11 -43 29t-19 58q0 42 36 70.5t87 28.5t86.5 -28.5t35.5 -70.5q0 -40 -19 -58t-44 -29q33 -11 58.5 -38t25.5 -70q0 -35 -19.5 -62.5t-51.5 -42.5t-72 -15zM575 49q32 0 53.5 18.5
t21.5 47.5q0 27 -21.5 46t-53.5 20q-32 0 -54 -19t-22 -47q1 -29 22.5 -47.5t53.5 -18.5zM575 246q25 0 41.5 14.5t16.5 36.5q0 20 -16.5 33.5t-41.5 13.5t-42 -13.5t-17 -33.5q0 -22 17 -36.5t42 -14.5z" />
    <glyph glyph-name="arrowup" unicode="&#x2191;" horiz-adv-x="469" 
d="M233 -160q-16 0 -27.5 11.5t-11.5 28.5v691l-90 -90q-12 -11 -28 -11q-17 0 -28 11t-11 28q0 15 11 27l159 159q12 10 26 10q15 0 27 -10l159 -159q11 -12 11 -27q0 -17 -11 -28t-28 -11t-28 11l-90 90v-691q0 -17 -11.5 -28.5t-28.5 -11.5z" />
    <glyph glyph-name="arrowdown" unicode="&#x2193;" horiz-adv-x="469" 
d="M233 -160q-14 0 -26 11l-159 158q-11 12 -11 28t11 27.5t28 11.5q16 0 28 -11l90 -91v692q0 16 11.5 27.5t27.5 11.5q17 0 28.5 -11.5t11.5 -27.5v-692l90 91q6 5 13 8t15 3q17 0 28 -11.5t11 -27.5t-11 -28l-159 -158q-11 -11 -27 -11z" />
    <glyph glyph-name="minus" unicode="&#x2212;" horiz-adv-x="547" 
d="M78 313q-17 0 -28 11t-11 28q0 16 11 27t28 11h390q17 0 28 -11t11 -27q0 -17 -11 -28t-28 -11h-390z" />
    <glyph glyph-name="uni2215" unicode="&#x2215;" horiz-adv-x="469" 
d="M77 -78q-21 0 -32.5 16.5t-2.5 38.5l314 783q4 11 14 17t22 6q22 0 32 -17.5t3 -37.5l-314 -784q-5 -12 -15 -17t-21 -5z" />
    <glyph glyph-name="i.loclTRK" horiz-adv-x="289" 
d="M145 0q-18 0 -28.5 10.5t-10.5 28.5v469q0 18 10.5 28.5t28.5 10.5q17 0 27.5 -10.5t10.5 -28.5v-469q0 -18 -10.5 -28.5t-27.5 -10.5zM144 651q-22 0 -38 16t-16 39q0 25 16.5 39.5t38.5 14.5q21 0 37.5 -14.5t16.5 -39.5q0 -23 -16 -39t-39 -16z" />
    <glyph glyph-name="zero.comp" horiz-adv-x="431" 
d="M215 0q-53 0 -97.5 26.5t-71 71t-26.5 97.5q0 54 26.5 98t71 70.5t97.5 26.5q54 0 98.5 -26t71 -70.5t26.5 -98.5t-26.5 -98t-71 -70.5t-98.5 -26.5zM215 76q33 0 60 16.5t43.5 43.5t16.5 59t-16.5 59t-43.5 43.5t-60 16.5q-32 0 -59.5 -16t-43.5 -43t-16 -60
q0 -32 16 -59.5t43.5 -43.5t59.5 -16z" />
    <glyph glyph-name="eight.dnom" horiz-adv-x="378" 
d="M190 -11q-40 0 -72.5 15t-52 42.5t-19.5 62.5q0 44 25 70.5t58 37.5q-24 11 -43 29t-19 58q0 42 36 70.5t87 28.5t86.5 -28.5t35.5 -70.5q0 -40 -19 -58t-44 -29q33 -11 58.5 -38t25.5 -70q0 -35 -19.5 -62.5t-51.5 -42.5t-72 -15zM190 49q32 0 53.5 18.5t21.5 47.5
q0 27 -21.5 46t-53.5 20q-32 0 -54 -19t-22 -47q1 -29 22.5 -47.5t53.5 -18.5zM190 246q25 0 41.5 14.5t16.5 36.5q0 20 -16.5 33.5t-41.5 13.5t-42 -13.5t-17 -33.5q0 -22 17 -36.5t42 -14.5z" />
    <glyph glyph-name="five.numr" horiz-adv-x="357" 
d="M176 382q-37 0 -67 16t-47 43.5t-17 62.5q0 15 9.5 24t21.5 9t21 -9t9 -24q0 -26 20 -44t51 -18q30 0 50 20t20 50q0 38 -22.5 56.5t-57.5 18.5h-75q-10 0 -16.5 6.5t-6.5 16.5v148q0 10 6.5 16.5t16.5 6.5h174q12 0 20 -8t8 -21t-8 -22t-20 -9h-134v-77h45
q47 0 76.5 -18t44 -47.5t14.5 -64.5q0 -58 -39 -95t-97 -37z" />
    <glyph glyph-name="seven.numr" horiz-adv-x="323" 
d="M116 379q-19 0 -26.5 15.5t0.5 33.5l150 338l20 -46h-203q-14 0 -23.5 9t-9.5 21q0 13 9.5 22t23.5 9h202q21 0 30 -17.5t0 -38.5l-138 -326q-5 -11 -15.5 -15.5t-19.5 -4.5z" />
    <glyph glyph-name="periodcentered.loclCAT" horiz-adv-x="191" 
d="M96 313q-24 0 -41.5 16.5t-17.5 41.5t17 42t42 17q24 0 40.5 -17.5t16.5 -41.5t-16.5 -41t-40.5 -17z" />
    <glyph glyph-name="tildecomb.i" horiz-adv-x="0" 
d="M259 642q-25 0 -45 11.5t-33 25.5q-14 14 -23.5 20.5t-21.5 6.5t-20.5 -10t-17.5 -27q-7 -13 -19.5 -18t-25.5 0q-14 5 -18.5 18t2.5 27q18 39 41.5 56.5t53.5 17.5q29 0 46.5 -12.5t32.5 -25.5q16 -14 25 -19t16 -5q14 0 25 24q7 14 20 20t25 2q16 -6 21.5 -19t-1.5 -27
q-17 -36 -37.5 -51t-45.5 -15z" />
    <glyph glyph-name="_part.stemh" horiz-adv-x="257" 
d="M129 223q-18 0 -28.5 11t-10.5 28v480q0 18 10.5 28.5t28.5 10.5q17 0 27.5 -10.5t10.5 -28.5v-480q0 -17 -10.5 -28t-27.5 -11z" />
    </font>
</defs>
</svg>
